Drama

Towelhead 2007 DVDRIP XviD ZEKTORM

  • Download 5x Faster
  • Download torrent
  • Direct Download
  • Rate this torrent +  |  -
Towelhead 2007 DVDRIP XviD ZEKTORM

Anonymous and Direct Download 300GB+ free


Torrent info

Name:Towelhead 2007 DVDRIP XviD ZEKTORM

Total Size: 718.96 MB

Magnet: Magnet Link

Seeds: 0

Leechers: 0

Stream: Watch Online @ Movie4u

Last Updated: 2011-07-12 23:50:45 (Update Now)

Torrent added: 2008-12-24 12:36:04




Torrent Files List


READ.hlp (Size: 718.96 MB) (Files: 4)

 READ.hlp

2.03 KB

 Subs

  Towelhead.2007.DVDRIP.XviD-ZEKTORM.idx

321.43 KB

  Towelhead.2007.DVDRIP.XviD-ZEKTORM.sub

17.73 MB

 Towelhead.2007.DVDRIP.XviD-ZEKTORM.avi

700.91 MB
 

Announce URL: http://inferno.demonoid.com:3417/announce

Torrent description

Title : Towelhead
Also Known As : Nothing Is Private
Year : 2007
Genre : Drama
iMDB Rate : User Rating: 7.5/10 780 votes
iMDB URL : http://www.imdb.com/title/tt0787523/

Complete name : Towelhead.2007.DVDRIP.XviD-ZEKTORM.avi
Format : AVI
File size : 701 MiB
Duration : 1h 56mn
Overall bit rate : 840 Kbps
Subtitles : English, Spanish, French (Format: VobSub)
Source : DVD NTSC

Video
Format : MPEG-4 Visual
Format profile : Streaming [email protected]
Codec ID : DX50
Codec ID/Hint : DivX 5
Duration : 1h 56mn
Bit rate : 721 Kbps
Width : 720 pixels
Height : 304 pixels
Display aspect ratio : 2.35
Frame rate : 23.976 fps
Resolution : 24 bits
Colorimetry : 4:2:0
Scan type : Progressive
Bits/(Pixel*Frame) : 0.137
Stream size : 602 MiB (86%)
Writing library : XviD 1.2.0.

Audio
Format : MPEG Audio
Format version : Version 1
Format profile : Layer 3
Codec ID : 55
Codec ID/Hint : MP3
Duration : 1h 56mn
Bit rate mode : Constant
Bit rate : 112 Kbps
Channel(s) : 2 channels
Sampling rate : 44.1 KHz
Resolution : 16 bits
Stream size : 93.4 MiB (13%)
Writing library : LAME3.97

related torrents

Torrent name

health leech seeds Size
 


comments (0)

Main Menu