Animation

Annabelles Wish1997VHS Rip XviD mp3Family Christmas Animationtjkong

  • Download 5x Faster
  • Download torrent
  • Direct Download
  • Rate this torrent +  |  -
Annabelles Wish1997VHS Rip XviD mp3Family Christmas Animationtjkong

Free and Direct Download with Usenet.nl 300GB+ free


Torrent info

Name:Annabelles Wish1997VHS Rip XviD mp3Family Christmas Animationtjkong

Total Size: 687.39 MB

Magnet: Magnet Link

Seeds: 9

Leechers: 4

Stream: Watch Online @ Movie4u

Last Updated: 2010-12-21 08:42:46 (Update Now)

Torrent added: 2008-12-24 12:35:39





Torrent Files List


[Images]Annabelle's.Wish[1997]VHS.Rip.XviD.mp3 (Size: 687.39 MB) (Files: 5)

 [Images]Annabelle's.Wish[1997]VHS.Rip.XviD.mp3

  Annabelles-Wish-Back.jpg

140.66 KB

  Annabelles-Wish-Front.jpg

122.15 KB

 [Description]Annabelle's.Wish[1997]VHS.Rip.XviD.mp3.nfo

1.97 KB

 Annabelles-Wish.avi

687.13 MB

 Torrent downloaded from Demonoid.com.txt

0.05 KB
 

Announce URL: http://tracker.publicbt.com/announce

Torrent description

Annabelle's Wish (1997) VHS-Rip

Cover: Annabelles Wish1997VHS Rip XviD mp3Family Christmas Animationtjkong preview 0

From the cover:
"Annabelle's Wish ... the magical story of unselfish giving and true friendship."

A Christmas family animation with voices by Randy Travis, Cloris Leachman, Jerry Van Dyke, Jim Varney

Original songs performed by Randy Travis, Alison Krauss and Beth Nielsen Chapman.

Screens (thumbs):
Annabelles Wish1997VHS Rip XviD mp3Family Christmas Animationtjkong preview 1

IMDB: http://www.imdb.com/title/tt0133372/

MediaInfo:

General
Complete name : Annabelles-Wish.avi
Format : AVI
File size : 687 MiB
Duration : 54mn 3s
Overall bit rate : 1 777 Kbps


Video
Format : MPEG-4 Visual
Format profile : Streaming [email protected]
Codec ID : XVID
Duration : 54mn 3s
Bit rate : 1 675 Kbps
Width : 608 pixels
Height : 448 pixels
Display aspect ratio : 4/3
Frame rate : 29.970 fps
Resolution : 24 bits
Colorimetry : 4:2:0
Scan type : Progressive
Bits/(Pixel*Frame) : 0.205
Stream size : 648 MiB (94%)
Writing library : XviD 50

Audio
Format : MPEG Audio
Format version : Version 1
Format profile : Layer 3
Codec ID : 55
Codec ID/Hint : MP3
Bit rate mode : Variable
Bit rate : 92.6 Kbps
Minimum bit rate : 128 Kbps
Channel(s) : 1 channel
Sampling rate : 48.0 KHz
Resolution : 16 bits
Stream size : 35.8 MiB (5%)

related torrents

Torrent name

health leech seeds Size
 

comments (0)

Main Menu