Comedy

Journey to the center of the earthH33T RICO

  • Download 5x Faster
  • Download torrent
  • Direct Download
  • Rate this torrent +  |  -
Journey to the center of the earthH33T RICO

Free and Direct Download with Usenet.nl 300GB+ free


Torrent info

Name:Journey to the center of the earthH33T RICO

Total Size: 886.50 MB

Magnet: Magnet Link

Seeds: 0

Leechers: 0

Stream: Watch Online @ Movie4u

Last Updated: 2015-07-30 13:23:41 (Update Now)

Torrent added: 2008-12-24 09:03:14





Torrent Files List


Journey to the center of the earth-RICO.avi (Size: 886.50 MB) (Files: 2)

 Journey to the center of the earth-RICO.avi

886.50 MB

 tracked_by_h33t_com.txt

0.02 KB
 

tracker

leech seeds
 

Torrent description

Journey to the center of the earthH33T RICO preview 0
General
Complete name : Journey to the center of the earth-RICO\Journey to the center of the earth-RICO.avi
Format : AVI
Format/Info : Audio Video Interleave
File size : 887 MiB
Duration : 1h 32mn
Overall bit rate : 1 338 Kbps

Video
Format : MPEG-4 Visual
Format profile : [email protected]
Format settings, BVOP : No
Format settings, QPel : No
Format settings, GMC : No warppoints
Format settings, Matrix : Default
Codec ID : XVID
Codec ID/Hint : XviD
Duration : 1h 32mn
Bit rate : 1 197 Kbps
Width : 640 pixels
Height : 480 pixels
Display aspect ratio : 4/3
Frame rate : 29.970 fps
Original frame rate : 29.969 fps
Resolution : 24 bits
Colorimetry : 4:2:0
Scan type : Progressive
Bits/(Pixel*Frame) : 0.130
Stream size : 793 MiB (89%)
Writing library : Magic0432

Audio
Format : MPEG Audio
Format version : Version 1
Format profile : Layer 3
Codec ID : 55
Codec ID/Hint : MP3
Duration : 1h 32mn
Bit rate mode : Constant
Bit rate : 128 Kbps
Channel(s) : 2 channels
Sampling rate : 44.1 KHz
Resolution : 16 bits
Stream size : 84.8 MiB (10%)
Alignment : Aligned on interleaves
Interleave, duration : 26 ms (0.78 video frame)
Writing library : LAME3.97

related torrents

Torrent name

health leech seeds Size
 

comments (0)

Main Menu