Movies - Other

Dynamos Concrete Playground WS DVDRip XviD LEE XTREMESPEEDS NET

  • Download 5x Faster
  • Download torrent
  • Direct Download
  • Rate this torrent +  |  -
Dynamos Concrete Playground WS DVDRip XviD LEE XTREMESPEEDS NET

Anonymous and Free Direct Download 300GB+


Torrent info

Name:Dynamos Concrete Playground WS DVDRip XviD LEE XTREMESPEEDS NET

Total Size: 707.21 MB

Magnet: Magnet Link

Seeds: 0

Leechers: 0

Stream: Watch Online @ Movie4u

Last Updated: 0000-00-00 00:00:00 (Update Now)

Torrent added: 2008-12-22 20:33:55



VPN For Torrents

Torrent Files List


Dynamos.Concrete.Playground.WS.DVDRip.XviD-LEE.part01.rar (Size: 707.21 MB) (Files: 51)

 Dynamos.Concrete.Playground.WS.DVDRip.XviD-LEE.part01.rar

14.31 MB

 Dynamos.Concrete.Playground.WS.DVDRip.XviD-LEE.part02.rar

14.31 MB

 Dynamos.Concrete.Playground.WS.DVDRip.XviD-LEE.part03.rar

14.31 MB

 Dynamos.Concrete.Playground.WS.DVDRip.XviD-LEE.part04.rar

14.31 MB

 Dynamos.Concrete.Playground.WS.DVDRip.XviD-LEE.part05.rar

14.31 MB

 Dynamos.Concrete.Playground.WS.DVDRip.XviD-LEE.part06.rar

14.31 MB

 Dynamos.Concrete.Playground.WS.DVDRip.XviD-LEE.part07.rar

14.31 MB

 Dynamos.Concrete.Playground.WS.DVDRip.XviD-LEE.part08.rar

14.31 MB

 Dynamos.Concrete.Playground.WS.DVDRip.XviD-LEE.part09.rar

14.31 MB

 Dynamos.Concrete.Playground.WS.DVDRip.XviD-LEE.part10.rar

14.31 MB

 Dynamos.Concrete.Playground.WS.DVDRip.XviD-LEE.part11.rar

14.31 MB

 Dynamos.Concrete.Playground.WS.DVDRip.XviD-LEE.part12.rar

14.31 MB

 Dynamos.Concrete.Playground.WS.DVDRip.XviD-LEE.part13.rar

14.31 MB

 Dynamos.Concrete.Playground.WS.DVDRip.XviD-LEE.part14.rar

14.31 MB

 Dynamos.Concrete.Playground.WS.DVDRip.XviD-LEE.part15.rar

14.31 MB

 Dynamos.Concrete.Playground.WS.DVDRip.XviD-LEE.part16.rar

14.31 MB

 Dynamos.Concrete.Playground.WS.DVDRip.XviD-LEE.part17.rar

14.31 MB

 Dynamos.Concrete.Playground.WS.DVDRip.XviD-LEE.part18.rar

14.31 MB

 Dynamos.Concrete.Playground.WS.DVDRip.XviD-LEE.part19.rar

14.31 MB

 Dynamos.Concrete.Playground.WS.DVDRip.XviD-LEE.part20.rar

14.31 MB

 Dynamos.Concrete.Playground.WS.DVDRip.XviD-LEE.part21.rar

14.31 MB

 Dynamos.Concrete.Playground.WS.DVDRip.XviD-LEE.part22.rar

14.31 MB

 Dynamos.Concrete.Playground.WS.DVDRip.XviD-LEE.part23.rar

14.31 MB

 Dynamos.Concrete.Playground.WS.DVDRip.XviD-LEE.part24.rar

14.31 MB

 Dynamos.Concrete.Playground.WS.DVDRip.XviD-LEE.part25.rar

14.31 MB

 Dynamos.Concrete.Playground.WS.DVDRip.XviD-LEE.part26.rar

14.31 MB

 Dynamos.Concrete.Playground.WS.DVDRip.XviD-LEE.part27.rar

14.31 MB

 Dynamos.Concrete.Playground.WS.DVDRip.XviD-LEE.part28.rar

14.31 MB

 Dynamos.Concrete.Playground.WS.DVDRip.XviD-LEE.part29.rar

14.31 MB

 Dynamos.Concrete.Playground.WS.DVDRip.XviD-LEE.part30.rar

14.31 MB

 Dynamos.Concrete.Playground.WS.DVDRip.XviD-LEE.part31.rar

14.31 MB

 Dynamos.Concrete.Playground.WS.DVDRip.XviD-LEE.part32.rar

14.31 MB

 Dynamos.Concrete.Playground.WS.DVDRip.XviD-LEE.part33.rar

14.31 MB

 Dynamos.Concrete.Playground.WS.DVDRip.XviD-LEE.part34.rar

14.31 MB

 Dynamos.Concrete.Playground.WS.DVDRip.XviD-LEE.part35.rar

14.31 MB

 Dynamos.Concrete.Playground.WS.DVDRip.XviD-LEE.part36.rar

14.31 MB

 Dynamos.Concrete.Playground.WS.DVDRip.XviD-LEE.part37.rar

14.31 MB

 Dynamos.Concrete.Playground.WS.DVDRip.XviD-LEE.part38.rar

14.31 MB

 Dynamos.Concrete.Playground.WS.DVDRip.XviD-LEE.part39.rar

14.31 MB

 Dynamos.Concrete.Playground.WS.DVDRip.XviD-LEE.part40.rar

14.31 MB

 Dynamos.Concrete.Playground.WS.DVDRip.XviD-LEE.part41.rar

14.31 MB

 Dynamos.Concrete.Playground.WS.DVDRip.XviD-LEE.part42.rar

14.31 MB

 Dynamos.Concrete.Playground.WS.DVDRip.XviD-LEE.part43.rar

14.31 MB

 Dynamos.Concrete.Playground.WS.DVDRip.XviD-LEE.part44.rar

14.31 MB

 Dynamos.Concrete.Playground.WS.DVDRip.XviD-LEE.part45.rar

14.31 MB

 Dynamos.Concrete.Playground.WS.DVDRip.XviD-LEE.part46.rar

14.31 MB

 Dynamos.Concrete.Playground.WS.DVDRip.XviD-LEE.part47.rar

14.31 MB

 Dynamos.Concrete.Playground.WS.DVDRip.XviD-LEE.part48.rar

14.31 MB

 Dynamos.Concrete.Playground.WS.DVDRip.XviD-LEE.part49.rar

8.03 MB

 Dynamos.Concrete.Playground.WS.DVDRip.XviD-LEE.sfv

8.07 KB

 sample

  sample-Dynamos.Concrete.Playground.WS.DVDRip.XviD-LEE.avi

12.52 MB
 

Announce URL:

Torrent description

Street magic from Britain's answer to David Blaine!

Concrete Playground is more than just a magic show; it is a unique film that is part documentary,
part music video, part road movie and is bound together with incredible real life magic.
The DVD was filmed in London, Bradford and Birmingham The magic is real and impromptu, there are
no set-ups, props or co-ordinated stunts and the explosive reactions verify the experience for the viewer.



General
Complete name : Dynamos.Concrete.Playground.WS.DVDRip.XviD-LEE.avi
Format : AVI
Format/Info : Audio Video Interleave
File size : 695 MiB
Duration : 1h 29mn
Overall bit rate : 1 081 Kbps
Writing application : VirtualDubMod 1.5.10.2 (build 2540/release)
Writing library : VirtualDubMod build 2540/release

Video
Format : MPEG-4 Visual
Format profile : Streaming [email protected]
Format settings, BVOP : Yes
Format settings, QPel : No
Format settings, GMC : No warppoints
Format settings, Matrix : Default
Codec ID : XVID
Codec ID/Hint : XviD
Duration : 1h 29mn
Bit rate : 943 Kbps
Width : 512 pixels
Height : 256 pixels
Display aspect ratio : 2.000
Frame rate : 25.000 fps
Resolution : 24 bits
Colorimetry : 4:2:0
Scan type : Progressive
Bits/(Pixel*Frame) : 0.288
Stream size : 606 MiB (87%)
Writing library : XviD 1.1.0 (UTC 2005-11-22)

Audio
Format : MPEG Audio
Format version : Version 1
Format profile : Layer 3
Codec ID : 55
Codec ID/Hint : MP3
Duration : 1h 29mn
Bit rate mode : Constant
Bit rate : 128 Kbps
Channel(s) : 2 channels
Sampling rate : 44.1 KHz
Resolution : 16 bits
Stream size : 82.3 MiB (12%)
Alignment : Split accross interleaves
Interleave, duration : 40 ms (1.00 video frame)
Interleave, preload duration : 500 ms


XTRA NOTES:

The quality of the dvd was s**t im my opinion i did best i could

Come along to xtremespeeds.net we have all the latest movies, tv eps, games, music and alot more and all these releases are from the scene and you will be guaranteed to get your max download speed on anything you download.

We only have clean stuff which means you will get no viruses or anything like that.

We are curerntly open for sign ups right now but please hurry as we will be closing the doors very soon!

When you sign up at xtremespeeds.net you will get:
2gb upload credit on your account
20 bonus points on your account

Come and check it out for more info and see it for yourself but please hurry!

related torrents

Torrent name

health leech seeds Size
 


comments (0)

Main Menu