Comedy

Bam Margera Where the F is santa RICO

  • Download 5x Faster
  • Download torrent
  • Direct Download
  • Rate this torrent +  |  -
Bam Margera Where the F is santa RICO

Anonymous and free Direct Download 300GB+


Torrent info

Name:Bam Margera Where the F is santa RICO

Total Size: 670.92 MB

Magnet: Magnet Link

Seeds: 5

Leechers: 4

Stream: Watch Online @ Movie4u

Last Updated: 0000-00-00 00:00:00 (Update Now)

Torrent added: 2008-12-22 20:33:40



VPN For Torrents

Torrent Files List


Bam Margera- Where the F... is santa-RICO.avi (Size: 670.92 MB) (Files: 2)

 Bam Margera- Where the F... is santa-RICO.avi

670.92 MB

 tracked_by_h33t_com.txt

0.02 KB
 

Announce URL: http://www.h33t.com:3310/announce

Torrent description

General
Complete name : G:\Movies\Bam Margera- Where the F... is santa-RICO\Bam Margera- Where the F... is santa-RICO.avi
Format : AVI
Format/Info : Audio Video Interleave
File size : 671 MiB
Duration : 1h 33mn
Overall bit rate : 1 006 Kbps
Writing application : Nandub v1.0rc2
Writing library : Nandub build 1852/release

Video
Format : MPEG-4 Visual
Format profile : [email protected]
Format settings, BVOP : Yes
Format settings, QPel : No
Format settings, GMC : No warppoints
Format settings, Matrix : Default
Codec ID : XVID
Codec ID/Hint : XviD
Duration : 1h 33mn
Bit rate : 860 Kbps
Width : 672 pixels
Height : 368 pixels
Display aspect ratio : 16/9
Frame rate : 23.976 fps
Resolution : 24 bits
Colorimetry : 4:2:0
Scan type : Progressive
Bits/(Pixel*Frame) : 0.145
Stream size : 574 MiB (85%)
Writing library : XviD 1.0.3 (UTC 2004-12-20)

Audio
Format : MPEG Audio
Format version : Version 1
Format profile : Layer 3
Codec ID : 55
Codec ID/Hint : MP3
Duration : 1h 33mn
Bit rate mode : Variable
Bit rate : 133 Kbps
Minimum bit rate : 128 Kbps
Channel(s) : 2 channels
Sampling rate : 48.0 KHz
Resolution : 16 bits
Stream size : 88.8 MiB (13%)
Alignment : Aligned on interleaves
Interleave, duration : 24 ms (0.58 video frame)
Interleave, preload duration : 132 ms
Writing library : LAME3.97
Encoding settings : VBR (mtrh)

related torrents

Torrent name

health leech seeds Size
 


comments (0)

Main Menu