Action

Death Race2008 Dvdrip Xvid Engsub AC35 1 RoCK&BlueLadyRG

  • Download 5x Faster
  • Download torrent
  • Direct Download
  • Rate this torrent +  |  -

Torrent info

Name:Death Race2008 Dvdrip Xvid Engsub AC35 1 RoCK&BlueLadyRG

Total Size: 1.56 GB

Magnet: Magnet Link

Seeds: 3

Leechers: 58

Stream: Watch Full Movie @ Movie4u

Last Updated: 0000-00-00 00:00:00 (Update Now)

Torrent added: 2008-12-21 08:35:14



VPN For Torrents

Torrent Files List


Babylon.A.D.[2008].Dvdrip.Xvid.AC3[5.1]-RoCK&BlueLadyRG.nfo (Size: 1.56 GB) (Files: 3)

 Babylon.A.D.[2008].Dvdrip.Xvid.AC3[5.1]-RoCK&BlueLadyRG.nfo

4.85 KB

 Death.Race[2008].Dvdrip.Xvid.[Engsub].AC3[5.1]-RoCK&BlueLadyRG.avi

1.56 GB

 Death.Race[2008].Dvdrip.Xvid.[Engsub].AC3[5.1]-RoCK&BlueLadyRG.srt

70.63 KB
 

Announce URL: http://vip.tracker.thepiratebay.org:80/announce

Torrent description


RoCK & BlueLady RG

*******************************************************************************
Proudly presents: Death Race (2008)
*******************************************************************************

-------------------------------------------------------------------------------
General Information
-------------------------------------------------------------------------------
Type : Movie
Burn Tested : Yes
Subtitles : English for hearing impeared
: Dutch/French can be found on http://www.genesis-sp.com

Format : AVI
Format/Info : Audio Video Interleave
File size : 1.56 GiB
Duration : 1h 50mn
Overall bit rate : 2 018 Kbps
Writing application : VirtualDubMod 1.5.10.2 (build 2540/release)
Writing library : VirtualDubMod build 2540/release

Audio Enlish
Format : AC-3
Format/Info : Audio Coding 3
Codec ID : 2000
Duration : 1h 50mn
Bit rate mode : Constant
Bit rate : 448 Kbps
Channel(s) : 6 channels
Channel positions : Front: L C R, Surround: L R, LFE
Sampling rate : 48.0 KHz
Stream size : 355 MiB (22%)
Alignment : Split accross interleaves
Interleave, duration : 33 ms (1.00 video frame)
Interleave, preload duration : 500 ms

Video
Format : MPEG-4 Visual
Format settings, BVOP : No
Format settings, QPel : No
Format settings, GMC : No warppoints
Format settings, Matrix : Default
Codec ID : XVID
Codec ID/Hint : XviD
Duration : 1h 50mn
Bit rate : 1 559 Kbps
Width : 720 pixels
Height : 304 pixels
Display aspect ratio : 2.35
Frame rate : 29.970 fps
Resolution : 24 bits
Colorimetry : 4:2:0
Scan type : Progressive
Bits/(Pixel*Frame) : 0.238
Stream size : 1.21 GiB (77%)
Writing library : XviD 1.0.3 (UTC 2004-12-20)

Source : Retail-DVD
Original Format : NTSC
Genre : Action | Sci-Fi | Thriller
IMDb Rating : 6.7 (16,398 Votes)
Movie Information : http://www.imdb.com/title/tt0452608/
DVD Retail Date : December 21, 2008

-------------------------------------------------------------------------------
Post Information
-------------------------------------------------------------------------------
Posted by............: RoCK (http://www.genesis-sp.com)
Posted on............: 21-12-2008

-------------------------------------------------------------------------------
Release Notes
-------------------------------------------------------------------------------
Ex-con Jensen Ames is forced by the warden of a notorious prison to compete in our post-industrial world's most popular sport: a car race in which inmates must brutalize and kill one another on the road to victory.

Director: Paul W.S. Anderson

Writer : Paul W.S. Anderson

Cast :

Jason Statham ... Jensen Ames
Joan Allen ... Warden Hennessey
Ian McShane ... Coach
Tyrese Gibson ... Machine Gun Joe Mason
Natalie Martinez ... Elizabeth Case
Max Ryan ... Pachenko
Jacob Vargas ... Gunner
Jason Clarke ... Guard Ulrich
Frederick Koehler ... Lists
Justin Mader ... Travis Colt
Robert LaSardo ... Hector Grimm
Robin Shou ... 14K
Benz Antoine ... Joe's Navigator #1
Danny Blanco ... Joe's Navigator #2 (as Danny Blanco Hall)
Christian Paul ... Joe's Navigator #3

Enjoy this movie!



------------------------------------------------------------------------------------------
Announcement
------------------------------------------------------------------------------------------
I decided to drop the 1cd versions and replace them with movies in MKV format. This means
smaller filesizes with higher quality. The movies you can watch in VLC or download the x264
codec!

If you want to decode it and burn it on dvd use convertxtodvd 3


RoCK.






------------------------------------------------------------------------------------------
You can find us both at: http://www.genesis-sp.com/
------------------------------------------------------------------------------------------

related torrents

Torrent name

health leech seeds Size
 


comments (0)

Main Menu

 

script data-cfasync="false" src="//d2ghscazvn398x.cloudfront.net/?cshgd=690275">