Comedy

Sabrina Movies zur Serie

  • Download 5x Faster
  • Download torrent
  • Direct Download
  • Rate this torrent +  |  -
Sabrina Movies zur Serie

Anonymous and Free Direct Download 300GB+


Torrent info

Name:Sabrina Movies zur Serie

Total Size: 1.42 GB

Magnet: Magnet Link

Seeds: 3

Leechers: 1

Stream: Watch Online @ Movie4u

Last Updated: 2010-11-25 22:11:49 (Update Now)

Torrent added: 2008-12-21 08:34:25



VPN For Torrents

Torrent Files List


Sabrina - verhext Australien.avi (Size: 1.42 GB) (Files: 2)

 Sabrina - verhext Australien.avi

754.30 MB

 Sabrina - Verhext in Rom.avi

700.03 MB
 

Announce URL: http://tbtracker.lir.dk/announce.php

Torrent description

!!GERMAN TRACKER!!


Torrent Name: Sabrina - Total verhext -- Movie Spezials zur Serie

Movie/Serie

Sprache: [X] Deutsch [ ] Englisch [ ] siehe Beschreibung

Video: [ ] HDTV [ ] DVD [X] TV/dTV [ ] TS [ ] Cam [ ] Sonstiges
Audio: [ ] AC3 [ ] DVD [X] TV/dTV [ ] LD [ ] Micro [ ] Sonstiges

Genre: TV-Serien/Comedy/Spezials


Untertitel: keine

Extras: keine



-------------------------
Beschreibung:
Sabrina - Verhext in Rom

Sabrina reist in die ewige Stadt Rom um ein Familiengeheimnis zu lueften. Als sie in Rom angekommen ist, bemerkt sie, dass ihr sprechender Kater Salem sich mit ins Gepaeck geschlichen hat. Als sie in der Pension ankommt, wird sie zusammen mit Gwen in ein Zimmer einquartiert. Sabrina macht sich erst sorgen, da sie eine Halbhexe ist und ihre Zauberkraefte der neuen Zimmergenossin auffallen koennten. Doch durch einen Zufall enttarnen sich beide als Hexen. So werden Sabrina und Gwen beste Freundinnen. Sabrina hat aber nur 14 Tage Zeit um das magische Schloss (ein Familiengeheimnis) zu oeffnen, sonst wuerde ihre Tante Sophia fuer immer darin gefangen bleiben.

Dann sind da auch noch zwei Journalisten (gespielt von James Fields und Eddie Mills, der Melissas damaliger Freund war), die Sabrina als Hexe enttarnen moechten. Doch am Ende nach einigen Hindernissen verliebt Sabrina sich in den einen Journalisten und loest das Familiengeheimnis.

Sabrina - Verhext in Australien

Die Halbhexe Sabrina reist mit ihrer besten Freundin Gwen (ebenfalls eine Hexe)fuer einen einwoechigen Urlaub nach Hamilton Island in Australien ans Great Barrier Reef. Zur selben Zeit macht auch Sabrinas Kater Salem Urlaub in dem selben Hotel, wie jedes Jahr (er gibt sich als Mensch aus, weshalb die Angestellten immer nur "seine" Katze zu Gesicht bekommen und nie den "Besitzer&quot. Dort lernen sie den Meeresbiologen Dr. Julian Martin kennen, der sich aufgrund von Wasserverschmutzungen um die Meeressaeuger sorgt. Gwen und Sabrina entdecken eine "maennliche Nixe" namens Barnaby, die wegen der Wasserverschmutzungen - wie auch die anderen Meeressaeuger - an einem Hautausschlag leidet. Als sie Salbe aus Dr. Martins Labor holen um Barnaby damit zu versorgen, schoepft dieser Verdacht und will schliesslich die Existenz der Meerjungfrauen-Kolonie an die Oeffentlichkeit bringen, um so Beruehmtheit zu erlangen.

-------------------------
Teschnische Details:
General
Complete name : Sabrina - Verhext in Rom.avi
Format : AVI
Format/Info : Audio Video Interleave
File size : 700 MiB
Duration : 1h 25mn
Overall bit rate : 1146 Kbps
Writing application : VirtualDubMod 1.5.4.1 (build 2178/release)
Writing library : VirtualDubMod build 2178/release

Video
Format : MPEG-4 Visual
Format profile : Streaming [email protected]
Format settings, BVOP : Yes
Format settings, QPel : No
Format settings, GMC : No warppoints
Format settings, Matrix : Custom
Codec ID : XVID
Codec ID/Hint : XviD
Duration : 1h 25mn
Bit rate : 1019 Kbps
Width : 512 pixels
Height : 384 pixels
Display aspect ratio : 4/3
Frame rate : 25.000 fps
Resolution : 8 bits
Colorimetry : 4:2:0
Scan type : Progressive
Bits/(Pixel*Frame) : 0.207
Stream size : 623 MiB (89)
Writing library : XviD 1.2.0SMP (UTC 2006-01-08)

Audio
Format : MPEG Audio
Format version : Version 1
Format profile : Layer 3
Codec ID : 55
Codec ID/Hint : MP3
Duration : 1h 25mn
Bit rate mode : Variable
Bit rate : 113 Kbps
Minimum bit rate : 128 Kbps
Channel(s) : 2 channels
Sampling rate : 48.0 KHz
Resolution : 16 bits
Stream size : 69.3 MiB (10)
Alignment : Aligned on interleaves
Interleave, duration : 24 ms (0.60 video frame)
Interleave, preload duration : 517 ms
Writing library : LAME3.97b
Encoding settings : ABR


General
Complete name : Sabrina - verhext Australien.avi
Format : AVI
Format/Info : Audio Video Interleave
File size : 754 MiB
Duration : 1h 22mn
Overall bit rate : 1277 Kbps
Writing library : VirtualDub build 18160/release

Video
Format : MPEG-4 Visual
Format profile : Streaming [email protected]
Format settings, BVOP : Yes
Format settings, QPel : No
Format settings, GMC : No warppoints
Format settings, Matrix : Default
Muxing mode : Packet Bitstream
Codec ID : XVID
Codec ID/Hint : XviD
Duration : 1h 22mn
Bit rate : 1140 Kbps
Width : 592 pixels
Height : 448 pixels
Display aspect ratio : 4/3
Frame rate : 25.000 fps
Resolution : 8 bits
Colorimetry : 4:2:0
Scan type : Progressive
Bits/(Pixel*Frame) : 0.172
Stream size : 673 MiB (89)
Writing library : XviD 1.2.0SMP (UTC 2006-01-08)

Audio
Format : MPEG Audio
Format version : Version 1
Format profile : Layer 3
Codec ID : 55
Codec ID/Hint : MP3
Duration : 1h 22mn
Bit rate mode : Constant
Bit rate : 128 Kbps
Channel(s) : 2 channels
Sampling rate : 48.0 KHz
Resolution : 16 bits
Stream size : 75.6 MiB (10)
Alignment : Split accross interleaves
Interleave, duration : 40 ms (1.00 video frame)
Interleave, preload duration : 500 ms

related torrents

Torrent name

health leech seeds Size

Ohl zurÃck Zur Front

0 0 59.00 MB 0
 


comments (0)

Main Menu