Animation

Frosty The Snowman DiVx

  • Download 5x Faster
  • Download torrent
  • Direct Download
  • Rate this torrent +  |  -
Frosty The Snowman DiVx

Free and Direct Download with Usenet 300GB+ free


Torrent info

Name:Frosty The Snowman DiVx

Total Size: 280.18 MB

Magnet: Magnet Link

Seeds: 2

Leechers: 0

Stream: Watch Online @ Movie4u

Last Updated: 2010-12-24 08:39:38 (Update Now)

Torrent added: 2008-12-21 00:02:31




Torrent Files List


Frosty The Snowman.divx.nfo (Size: 280.18 MB) (Files: 22)

 Frosty The Snowman.divx.nfo

2.47 KB

 Frosty The Snowman.r00

14.31 MB

 Frosty The Snowman.r01

14.31 MB

 Frosty The Snowman.r02

14.31 MB

 Frosty The Snowman.r03

14.31 MB

 Frosty The Snowman.r04

14.31 MB

 Frosty The Snowman.r05

14.31 MB

 Frosty The Snowman.r06

14.31 MB

 Frosty The Snowman.r07

14.31 MB

 Frosty The Snowman.r08

14.31 MB

 Frosty The Snowman.r09

14.31 MB

 Frosty The Snowman.r10

14.31 MB

 Frosty The Snowman.r11

14.31 MB

 Frosty The Snowman.r12

14.31 MB

 Frosty The Snowman.r13

14.31 MB

 Frosty The Snowman.r14

14.31 MB

 Frosty The Snowman.r15

14.31 MB

 Frosty The Snowman.r16

14.31 MB

 Frosty The Snowman.r17

14.31 MB

 Frosty The Snowman.r18

8.38 MB

 Frosty The Snowman.rar

14.31 MB

 Frosty.The.Snowman.DiVx.sfv

0.85 KB
 

Announce URL: http://sparksden.org/announce.php?passkey=8ac49053ca6d4e5ad22c6bc3bb050e14

Torrent description



frosty the snowman 1969 http://www.imdb.com/title/tt0064349/

A discarded silk tophat becomes the focus of a struggle between a washed-up stage magician and a group of schoolchildren after it magically brings a snowman to life. Realizing that newly-living Frosty will melt in spring unless he takes refuge in a colder climate, Frosty and a young girl who he befriends stow away on a freight train headed for the north pole. Little do they know that the magician is following them, and he wants his hat back. This animated short is based on the popular Christmas song of the same name

type:divx
audio: english
sfv included
rar count: 20 x 14.3



Complete name : Frosty The Snowman.divx
Format : AVI
Format/Info : Audio Video Interleave
File size : 280 MiB
Duration : 29mn 19s
Overall bit rate : 1 336 Kbps

Video
Format : MPEG-4 Visual
Format settings, BVOP : Yes
Format settings, QPel : No
Format settings, GMC : No warppoints
Format settings, Matrix : Default
Codec ID : DX50
Codec ID/Hint : DivX 5
Duration : 29mn 19s
Bit rate : 1 101 Kbps
Width : 656 pixels
Height : 480 pixels
Display aspect ratio : 4/3
Frame rate : 29.970 fps
Resolution : 24 bits
Colorimetry : 4:2:0
Scan type : Progressive
Bits/(Pixel*Frame) : 0.117
Stream size : 231 MiB (82%)
Title : Video
Writing library : DivX 2521

Audio
Format : AC-3
Format/Info : Audio Coding 3
Codec ID : 2000
Duration : 29mn 17s
Bit rate mode : Constant
Bit rate : 224 Kbps
Channel(s) : 2 channels
Channel positions : L R
Sampling rate : 48.0 KHz
Stream size : 46.9 MiB (17%)
Alignment : Split accross interleaves
Interleave, duration : 33 ms (1.00 video frame)
Interleave, preload duration : 500 ms
Title : Audio

related torrents

Torrent name

health leech seeds Size
 

comments (0)

Main Menu