Thriller

Lost Highway1997DvDrip DexterRipper

  • Download 5x Faster
  • Download torrent
  • Direct Download
  • Rate this torrent +  |  -
Lost Highway1997DvDrip DexterRipper

Anonymous and Free Direct Download 300GB+


Torrent info

Name:Lost Highway1997DvDrip DexterRipper

Total Size: 690.64 MB

Magnet: Magnet Link

Seeds: 2

Leechers: 2

Stream: Watch Online @ Movie4u

Last Updated: 0000-00-00 00:00:00 (Update Now)

Torrent added: 2008-12-20 00:05:23



VPN For Torrents

Torrent Files List


Lost.Highway[1997]DvDrip-DexterRipper.avi (Size: 690.64 MB) (Files: 2)

 Lost.Highway[1997]DvDrip-DexterRipper.avi

690.61 MB

 Lost.Highway[1997]DvDrip-DexterRipper.srt

37.21 KB
 

Announce URL: http://open.tracker.thepiratebay.org/announce

Torrent description

Director:

David Lynch

Writers (WGA):

David Lynch (written by) &
Barry Gifford (written by)

Release Date:

21 febrero 1997 (USA)

Genre:

Crime | Drama | Mystery | Thriller

Plot:

After a bizarre encounter at a party, a jazz saxophonist is framed for the murder of his wife and sent to prison, where he inexplicably morphs into a young mechanic and begins leading a new life.

-------------------------------------------------------------------------------------
This torrent contains the movie with spanish subtitles in .srt file.
-------------------------------------------------------------------------------------

Media info:

General

Complete name : Lost.Highway[1997]DvDrip-DexterRipper.avi
Format : AVI
Format/Info : Audio Video Interleave
File size : 691 MiB
Duration : 2h 8mn
Overall bit rate : 750 Kbps
Writing library : VirtualDub build 0/release

Video

Format : MPEG-4 Visual
Codec ID : DIV3
Codec ID/Hint : DivX 3 Low
Duration : 2h 8mn
Bit rate : 597 Kbps
Width : 576 pixels
Height : 240 pixels
Display aspect ratio : 2.400
Frame rate : 25.001 fps
Resolution : 24 bits
Bits/(Pixel*Frame) : 0.173
Stream size : 549 MiB (80%)

Audio

Format : MPEG Audio
Format version : Version 1
Format profile : Layer 3
Codec ID : 55
Codec ID/Hint : MP3
Duration : 2h 8mn
Bit rate mode : Variable
Bit rate : 141 Kbps
Channel(s) : 2 channels
Sampling rate : 48.0 KHz
Resolution : 16 bits
Stream size : 129 MiB (19%)
Alignment : Aligned on interleaves
Interleave, duration : 24 ms (0.60 video frame)
Interleave, preload duration : 240 ms

related torrents

Torrent name

health leech seeds Size
 


comments (0)

Main Menu