Action

Gran Torino DVDSCR XviD CodeTempest

  • Download 5x Faster
  • Download torrent
  • Direct Download
  • Rate this torrent +  |  -
Gran Torino DVDSCR XviD CodeTempest

Free and Direct Download with Usenet 300GB+ free


Torrent info

Name:Gran Torino DVDSCR XviD CodeTempest

Total Size: 703.75 MB

Magnet: Magnet Link

Seeds: 0

Leechers: 24

Stream: Watch Online @ Movie4u

Last Updated: 2010-07-27 12:01:52 (Update Now)

Torrent added: 2008-12-20 00:05:20




Torrent Files List


Gran Torino [CodeTempest].avi (Size: 703.75 MB) (Files: 3)

 Gran Torino [CodeTempest].avi

702.55 MB

 Gran Torino [DVDSCR] [XviD] [CodeTempest] [DESCRIPTION].rtf

2.74 KB

 Z - CodeTempest.jpg

1.20 MB
 

Announce URL: http://open.tracker.thepiratebay.org/announce

Torrent description

Gran Torino [DVDSCR] [XviD] [CodeTempest] [Released 2008 ]



***PLOT:Disgruntled Korean War vet Walt Kowalski sets out to reform his neighbor, a young Hmong teenager, who tried to steal Kowalski's prized possession: his 1972 Gran Torino.


Complete name : Gran.Torino.DVDSCR.xViD-xSCR

Format : AVI
Format/Info : Audio Video Interleave
File size : 703 MiB
Duration : 1h 56mn
Overall bit rate : 844 Kbps
Writing application : Nandub v1.0rc2
Writing library : Nandub build 1852/release

Video
Format : MPEG-4 Visual
Format profile : Streaming [email protected]
Format settings, BVOP : Yes

Format settings, Matrix : Default
Muxing mode : Packed bitstream
Codec ID : XVID
Codec ID/Hint : XviD
Duration : 1h 56mn
Bit rate : 701 Kbps
Width : 640 pixels
Height : 272 pixels
Display aspect ratio : 2.35
Frame rate : 23.976 fps
Resolution : 24 bits
Colorimetry : 4:2:0
Scan type : Progressive
Bits/(Pixel*Frame) : 0.168
Stream size : 584 MiB (83%#
Writing library : XviD 50

Audio
Format : MPEG Audio
Format version : Version 1
Format profile : Layer 3
Codec ID : 55
Codec ID/Hint : MP3
Duration : 1h 56mn
Bit rate mode : Variable
Bit rate : 130 Kbps
Minimum bit rate : 140 Kbps
Channel#s) : 2 channels
Sampling rate : 48.0 KHz
Resolution : 16 bits
Stream size : 108 MiB (15%#
Alignment : Aligned on interleaves
Interleave, duration : 24 ms #0.58 video frame)
Interleave, preload duration : 153 ms
Writing library : LAME3.98
Encoding settings : ABR




...[CodeTempest]

related torrents

Torrent name

health leech seeds Size
 

comments (0)

Main Menu