Comedy

ZweiWeihnachtsmaennerTeil1von2 avi

  • Download 5x Faster
  • Download torrent
  • Direct Download
  • Rate this torrent +  |  -
ZweiWeihnachtsmaennerTeil1von2 avi

Free and Direct Download with Usenet.nl 300GB+ free


Torrent info

Name:ZweiWeihnachtsmaennerTeil1von2 avi

Total Size: 700.01 MB

Magnet: Magnet Link

Seeds: 2

Leechers: 0

Stream: Watch Online @ Movie4u

Last Updated: 2009-12-08 08:04:08 (Update Now)

Torrent added: 2008-12-20 00:01:32





Torrent Files List


ZweiWeihnachtsmaennerTeil1von2.avi (Size: 700.01 MB) (Files: 1)

 ZweiWeihnachtsmaennerTeil1von2.avi

700.01 MB
 

Announce URL: http://irrenhaus.dyndns.dk/announce.php

Torrent description




Format : AVI
Format/Info : Audio Video Interleave
File size : 700 MiB
Duration : 1h 30mn
Sie sind wie Feuer und Eis: Den witzigen, aber erfolglosen Poolnudelvertreter
Hilmar Kess und den ehrgeizigen Wirtschaftsanwalt Tilmann Dilling verbindet
eigentlich gar nichts, auer der Wunsch, rechtzeitig zu Weihnachten von
ihren Dienstreisen zu Hause zu sein.
Auf Tilmann wartet seine Familie mit dem Mittagessen, auf Hilmar seine Freundin,
die Krankenschwester Ilka.

Doch das Schicksal in Form eines Schneesturms fhrt die beiden vier Tage
vor Heiligabend zusammen - und lsst sie so bald nicht wieder auseinander.
Ein Flug sollte sie eigentlich von Wien nach Berlin bringen, doch stattdessen
landen die beiden nach einer wetterbedingten Umleitung im eisigen Bratislava,
im Handgepck nichts weiter als einen Aktenkoffer bzw. eine Reisetasche mit
schrgen Pool-Accessoires. Und das ist nur der Beginn eines Abenteuers, das
sich schon bald zu einer winterlichen Odyssee quer durch Osteuropa
entwickelt, die jede bisher bekannte Form von Weihnachtswahnsinn bertrifft
SAT1, 18/dez/2008
Mit Bastian Pastewka und Christoph Maria Herbst.


Overall bit rate : 1 084 Kbps
Writing application : VirtualDubMod 1.5.4.1 (build 2178/release)
Writing library : VirtualDubMod build 2178/release

Video
Codec ID : XVID
Duration : 1h 30mn
Bit rate : 962 Kbps
Width : 608 pixels
Height : 352 pixels
Display aspect ratio : 16/9
Frame rate : 25.000 fps
Resolution : 24 bits
Colorimetry : 4:2:0
Scan type : Progressive
Bits/(Pixel*Frame) : 0.180
Stream size : 621 MiB (89)
Writing library : XviD 1.2.0.dev47 (UTC 2006-11-01)

Audio
Format : MPEG Audio
Format version : Version 1
Format profile : Layer 3
Codec ID : 55
Codec ID/Hint : MP3
Duration : 1h 30mn
Bit rate mode : Variable
Bit rate : 110 Kbps
Minimum bit rate : 128 Kbps
Channel(s) : 2 channels
Sampling rate : 48.0 KHz
Resolution : 16 bits
Stream size : 70.8 MiB (10)
Alignment : Aligned on interleaves
Interleave, duration : 24 ms (0.60 video frame)
Interleave, preload duration : 602 ms
Writing library : LAME3.97
Encoding settings : ABR


comments (0)

Main Menu