Sci-Fi

Scanners III The Takeover (1992)

  • Download 5x Faster
  • Download torrent
  • Direct Download
  • Rate this torrent +  |  -
Scanners III The Takeover (1992)

Anonymous and free Direct Download 300GB+


Torrent info

Name:Scanners III The Takeover (1992)

Total Size: 703.88 MB

Magnet: Magnet Link

Seeds: 0

Leechers: 0

Stream: Watch Online @ Movie4u

Last Updated: 0000-00-00 00:00:00 (Update Now)

Torrent added: 2008-12-19 20:34:14



VPN For Torrents

Torrent Files List


Subs (Size: 703.88 MB) (Files: 5)

 Subs

  Scanners II - The New Order (1991).srt

63.42 KB

  Scanners III - The Takeover (1992).srt

69.77 KB

 Scanners III - The Takeover (1992).avi

703.75 MB

 Scanners III - The Takeover (1992).nfo

2.75 KB

 Torrent downloaded from Demonoid.com.txt

0.05 KB
 

Announce URL:

Torrent description

Director:
Christian Duguay
Writers (WGA):
David Cronenberg and B.J. Nelson (written by) ...
Genre:
Action | Horror | Sci-Fi

A young female scanner turns from a sweet young thing into
a murderous, power-crazed villain after she takes an experimental
drug developed by her father. Her brother, who is also a scanner,
is the only one powerful enough to stop her.

Tagline:
Get ready for the ultimate display of brain power...
-----------------------------------------------------------------------------------------------
G e n e r a l
--------------
Complete name : Scanners III - The Takeover (1992)
Format : AVI
Format/Info : Audio Video Interleave
File size : 704 MiB
Duration : 1h 35mn
Overall bit rate : 1 030 Kbps
Writing library : VirtualDub build 29963/release

Video
Format : MPEG-4 Visual
Format profile : Streaming [email protected]
Format settings, BVOP : Yes
Format settings, QPel : No
Format settings, GMC : No warppoints
Format settings, Matrix : Default
Muxing mode : Packed bitstream
Codec ID : DX50
Codec ID/Hint : DivX 5
Duration : 1h 35mn
Bit rate : 893 Kbps
Width : 608 pixels
Height : 336 pixels
Display aspect ratio : 16/9
Frame rate : 25.000 fps
Resolution : 24 bits
Colorimetry : 4:2:0
Scan type : Progressive
Bits/(Pixel*Frame) : 0.175
Stream size : 610 MiB (87%)
Writing library : XviD 1.2.0.dev47

Audio
Format : MPEG Audio
Format version : Version 1
Format profile : Layer 3
Codec ID : 55
Codec ID/Hint : MP3
Duration : 1h 35mn
Bit rate mode : Constant
Bit rate : 128 Kbps
Minimum bit rate : 128 Kbps
Channel(s) : 2 channels
Sampling rate : 48.0 KHz
Resolution : 16 bits
Stream size : 87.4 MiB (12%)
Alignment : Split accross interleaves
Interleave, duration : 40 ms (1.00 video frame)
Interleave, preload duration : 500 ms
Encoding settings : CBR

related torrents

Torrent name

health leech seeds Size
 


comments (0)

Main Menu