Discovery Channel

Disc Ch JFK Inside The Target Car 2008 640x480 xvid mp3 snach avi h33t

  • Download 5x Faster
  • Download torrent
  • Direct Download
  • Rate this torrent +  |  -
Disc Ch JFK Inside The Target Car 2008 640x480 xvid mp3 snach avi h33t

Free and Direct Download with Usenet 300GB+ free


Torrent info

Name:Disc Ch JFK Inside The Target Car 2008 640x480 xvid mp3 snach avi h33t

Total Size: 749.60 MB

Magnet: Magnet Link

Seeds: 0

Leechers: 0

Stream: Watch Online @ Movie4u

Last Updated: 2013-03-05 09:34:59 (Update Now)

Torrent added: 2008-12-19 04:38:59




Torrent Files List


Disc.Ch.JFK.Inside.The.Target.Car.2008.640x480.xvid.mp3-snach.avi (Size: 749.60 MB) (Files: 1)

 Disc.Ch.JFK.Inside.The.Target.Car.2008.640x480.xvid.mp3-snach.avi

749.60 MB
 

Announce URL:

Torrent description

--this is my own tv capture of this show--
Discovery Channel - JFK: Inside the Target Car (2008)

This premiered on Sunday, Nov. 16, 2008, at 9 PM on the Discovery Channel

It's from the Discovery Channel so you know it agrees with the official story. Here's some propaganda to disseminate. Jim Marrs debunked this on the Alex Jones show already.


Program Info
On Sunday, Nov. 16, 2008, at 9 PM (ET/PT), The Discovery Channel presents JFK: Inside the Target Car, the closest look yet at the assassination of President John F. Kennedy on Nov. 22, 1963.

For the show, The Discovery Channel has assembled a team of experts to set up an array of ballistic tests and trajectory analysis, as well as the latest in forensic artificial body creation.

With methodical cutting-edge forensics and Zapruder film archives, the experts painstakingly show that the fatal bullet was fired from the Texas School Book Depository, not the grassy knoll.

The Discovery Channel worked with Adelaide T&E Systems, an engineering company that specializes in creating exact human specimens utilized in military weaponry development.

Using Kennedy’s hat size, the experts created a replica of a human head, with the size and density. A special effects team also completely recreated the Presidential limousine passenger area.

JFK: Inside the Target Car "is the latest example of using breakthrough technology to authenticate scientific theories," said John Ford, president and general manager, Discovery Channel. "This special encompasses an intensive forensic investigation that proves the origin of the fatal bullet. It’s momentous for the network to help support the science behind this definitive evidence."

The investigation team:

- Gary Mack, Curator of The Sixth Floor Museum at Dealey Plaza in Dallas, and a 25-year veteran of Kennedy investigations
- Michael Yardley, world renowned sharpshooter
- Wesley Fisk, Chief Operating Officer of Adelaide T&E Systems
- Tom Bevel and Steve Schlieble, veteran crime scene and forensic examiners

Interviews with key players from that November day helped assemble the pieces of the puzzle. Jack McNairy and H.B. McLain are two eyewitnesses who saw the blood-splattered limo before the Secret Service ordered it cleaned and sent back to Washington, D.C. Bobby Hargis, a Dallas police officer who rode directly behind the limo, provided crucial information about the effects of gunfire.

And finally, the late Nellie Connally, in one of her last recorded interviews, talked about being in the car with her husband, Texas Governor John Connally, President and Mrs. Kennedy.

In the show, Yardley looked through the scope of a high-powered rifle from four different possible angles focused on a duplicate Presidential limousine. The limo was in the exact spot where Kennedy was fired on and filled with actors the same size as the passengers that day.

From vantage points at the south end of the overpass, the north end of the overpass and on the grassy knoll, Yardley determined whether a shot could have come from a second gunman at any of these spots.

After careful analysis of possible shot locations, the forensics team structured on a California firing range the exact distances, angles, and even wind speed in Dallas on Nov. 22, 1963. High-speed cameras rolled as Yardley took his best shot at the head replicas, using a Mannlicher Carcano rifle - the same type supposedly used by Lee Harvey Oswald.

The results of these precision ballistics tests provide some clear answers to the events in Dealey Plaza. Comparing the splatter patterns from these test angles, with the historical evidence gleaned from eyewitness testimony and Secret Service reports, as well as an exact digitized overlay of the Zapruder film, the forensic team draws the definitive conclusion that the fatal shot could have only come from the sixth floor window of the Book Depository and not anywhere else, just as the Warren Commission determined in 1964.


Video Info
Disc.Ch.JFK.Inside.The.Target.Car.2008.640x480.xvid.mp3-snach.avi

Format : AVI
Format/Info : Audio Video Interleave
File size : 750 MiB
Duration : 42mn 53s
Overal bit rate : 2443 Kbps
Writing application : MediaCoder 0.6

Video
Format : MPEG-4 Visual
Format profile : [email protected]
Format settings, BVOP : No
Format settings, QPel : No
Format settings, GMC : No warpoints
Format settings, Matrix : Default
Codec ID : XVID
Codec ID/Hint : XviD
Duration : 42mn 53s
Bit rate : 2318 Kbps
Width : 640 pixels
Height : 480 pixels
Display aspect ratio : 1.654
Frame rate : 30.000 fps
Resolution : 8 bits
Colorimetry : 4:2:0
Scan type : Progressive
Bits/(Pixel*Frame) : 0.251
Stream size : 711 MiB
Writing library : XviD 1.2.0.dev47 (UTC 2006-11-01)

Audio
Format : MPEG Audio
Format version : Version 1
Format profile : Layer 3
Codec ID : 55
Codec ID/Hint : MP3
Duration : 42mn 53s
Bit rate mode : Constant
Bit rate : 112 Kbps
Channel(s) : 2 channels
Sampling rate : 48.0 KHz
Resolution : 16 bits
Stream size : 34.4 MiB

Sorry that I couldn't get it under 700mb, just wanted to get this up already.

Go here to read more on what discovery has to say:
http://blogs.discovery.com/jfk/

Trackers:
http://tracker.conspiracycentral.net/announce
http://tracker.thepiratebay.org:80/announce
http://open.tracker.thepiratebay.org/announce
http://denis.stalker.h3q.com:6969/announce
http://torrent-downloads.to:5869/announce
http://onebigtorrent.org/announce.php

Find out why this is propaganda by joining us here:
http://ConspiracyCentral.net

Enjoy & Seed!

related torrents

Torrent name

health leech seeds Size
 

comments (0)

Main Menu