Drama

Salvador 26 anni contro avi

  • Download 5x Faster
  • Download torrent
  • Direct Download
  • Rate this torrent +  |  -
Salvador 26 anni contro avi

Anonymous and Free Direct Download


Torrent info

Name:Salvador 26 anni contro avi

Total Size: 1.37 GB

Magnet: Magnet Link

Seeds: 1

Leechers: 0

Stream: Watch Online @ Movie4u

Last Updated: 2015-05-21 04:08:12 (Update Now)

Torrent added: 2008-12-17 10:10:42



VPN For Torrents

Torrent Files List


Salvador - 26 anni contro.avi (Size: 1.37 GB) (Files: 1)

 Salvador - 26 anni contro.avi

1.37 GB
 

tracker

leech seeds
 

Torrent description

Salvador - 26 anni contro,[XviD - Ita Ac3 Esp Mp3][www.tntvillage.scambioetico.org]

Scheda del film

Titolo:Salvador - 26 anni contro
Titolo originale:Salvador - Puig Antich
Nazionalità:Spagna, Regno Unito
Anno:2006
Genere:Drammatico
Regia:Manuel Huerga
Produzione:Future Films Ltd., Mediapro
Distribuzione:Istituto Luce, Delta Pictures
Data di uscita:27 Aprile 2007 (cinema)

Cast

Daniel Brühl, Tristan Ulloa, Leonardo Sbaraglia, Joel Joan, Celso Bugallo, Mercedes Sampietro, Olalla Escribano, Carlota Olcina

Scheda tecnica (Mediainfo)

General

Complete name : Salvador - 26 anni contro.avi
Format : AVI
Format/Info : Audio Video Interleave
File size : 1.37 GiB
Duration : 2h 8mn
Overall bit rate : 1 530 Kbps
Writing application : VirtualDubMod 1.5.4.1 (build 2178/release)
Writing library : VirtualDubMod build 2178/release

Video

Format : MPEG-4 Visual
Format profile : Streaming [email protected]
Format settings, BVOP : Yes
Format settings, QPel : No
Format settings, GMC : No warppoints
Format settings, Matrix : Custom
Codec ID : XVID
Codec ID/Hint : XviD
Duration : 2h 8mn
Bit rate : 953 Kbps
Width : 640 pixels
Height : 272 pixels
Display aspect ratio : 2.35
Frame rate : 25.000 fps
Resolution : 24 bits
Colorimetry : 4:2:0
Scan type : Progressive
Bits/(Pixel*Frame) : 0.219
Stream size : 875 MiB (62%)
Writing library : XviD 1.2.0.dev47 (UTC 2006-11-01)

Audio #1

Format : AC-3
Format/Info : Audio Coding 3
Codec ID : 2000
Duration : 2h 8mn
Bit rate mode : Constant
Bit rate : 448 Kbps
Channel(s) : 6 channels
Channel positions : Front: L C R, Surround: L R, LFE
Sampling rate : 48.0 KHz
Stream size : 411 MiB (29%)
Alignment : Aligned on interleaves
Interleave, duration : 96 ms (2.40 video frames)
Interleave, preload duration : 96 ms
Language : Italiano

Audio #2

Format : MPEG Audio
Format version : Version 1
Format profile : Layer 3
Codec ID : 55
Codec ID/Hint : MP3
Duration : 2h 8mn
Bit rate mode : Variable
Bit rate : 114 Kbps
Minimum bit rate : 128 Kbps
Channel(s) : 2 channels
Sampling rate : 48.0 KHz
Resolution : 16 bits
Stream size : 105 MiB (7%)
Alignment : Aligned on interleaves
Interleave, duration : 24 ms (0.60 video frame)
Interleave, preload duration : 161 ms
Writing library : LAME3.97
Encoding settings : ABR
Language : Español

related torrents

Torrent name

health leech seeds Size
 


comments (0)

Main Menu