Other

Oklahoma (1999) Hugh Jackman H33TNaughty Knights

  • Download 5x Faster
  • Download torrent
  • Direct Download
  • Rate this torrent +  |  -
Oklahoma (1999) Hugh Jackman H33TNaughty Knights

Anonymous and Direct Download 300GB+ free


Torrent info

Name:Oklahoma (1999) Hugh Jackman H33TNaughty Knights

Total Size: 1.37 GB

Magnet: Magnet Link

Seeds: 4

Leechers: 2

Stream: Watch Online @ Movie4u

Last Updated: 0000-00-00 00:00:00 (Update Now)

Torrent added: 2008-12-17 00:35:13




Torrent Files List


Oklahoma 1.jpg (Size: 1.37 GB) (Files: 6)

 Oklahoma 1.jpg

31.51 KB

 Oklahoma 2.jpg

24.50 KB

 Oklahoma 3.jpg

36.63 KB

 Oklahoma Desc.txt

5.71 KB

 Oklahoma.avi

1.37 GB

 tracked_by_h33t_com.txt

0.03 KB
 

Announce URL: http://www.h33t.com:3310/announce

Torrent description

*************************************
* IF.YOU.ENJOYED.THANK.ME.BY.SEEDING

* I.DO.NOT.ALWAYS.READ.COMMENTS

* REQUEST RESEED AT:

* www.h33tfr33sp33k.h33t.com/

*************************************

* Genre..........: Musical

* Source ........: DVDrip

* Language ......: English

* MEDIAINFO SPECS: See Below

* Quality........: Good

* Hash ..........: F082F99E1F105330E78616FF4537B5CF7731379C

* Tracker 1......: http://www.h33t.com:3310/announce

* Tracker 2 .....: http://tpb.tracker.thepiratebay.org:80/announce

-----------------
IMDB: http://www.imdb.com/title/tt0216048/
----------------
Description:

In 1943, "Oklahoma!" debuted on Broadway, and in doing so reinvented music theater. Roughly fifty-five years later, Trevor Nunn reinvented "Oklahoma!". The result is something very rare indeed: a production that not only captures the original appeal of its source, but also brings new facets and dimentions to a familiar work.

The story itself remains simple, almost quaint: young pioneers Laurie (Josefina Gabrielle) and Curly (Hugh Jackman), like a prairie-school Beatrice and Benedick, tease, flirt, goad each other, and otherwise go out of their way to avoid admitting their obvious mutual attraction. But hired hand Jud Fry (Shuler Hensley) nurses a much less wholesome desire for Laurie, and his obsession starts to boil over into a serious threat. Meanwhile in the comic subplot, cowboy Will Parker (Jimmy Johnston) tries to prove himself worthy of his sweetheart Ado Annie (Vikki Simon) before her father can marry her off via shotgun to an unwilling Persian peddler.

But presentation is everything, and it is here that Nunn's genius shines through. Gone are the clean gingham gowns and pristine landscapes of so many productions past. The sets have a weathered, hard-used look to them, with a cast to match. One can almost feel the sweat and dust clinging to them. This is a harsh frontier we're entering, where there is certainly joy and laughter but also lots of hardship, poverty, and desperation. It's no wonder so many characters cling to their pride, risking everything on a single grand gesture--their pride is one of the few things they can truly call their own.

The three lead actors are excellent, easily some of the best I've seen in the material. From the moment he strides onstage singing "Oh What a Beautiful Mornin'," Jackman is a captivating and fully-developed hero. He brings much of the same cocky bravado that has defined Curly over the years, but balances it with healthy doses of anxiety, bitterness, and sensitivity. Not to be outdone, Hensley's Jud (a creation which quite justly earned him a Tony Award) starts out as a somewhat sad and pitiful creature, but gradually reveals the explosive rage buried inside him. As the woman who comes between them, Gabrielle balances nicely between naivitee and cleverness, and sings in a clear, beautiful soprano.

Of the supporting cast, Maureen Lipman is the standout as that quintessential pioneer matriarch, Aunt Eller. Wise as her years, hard as her life and tender as a sunset, she is the story's moral compass. Simon and Johnston are good, albiet rather conventional in their interpretations. As the peddler Ali Hakim, Peter Pollycarpou is the one false note in the cast, with a huckster attitude and an accent that sounds nearer to Manhattan than the Middle East.

Is this "Oklahoma!" better than the 1955 film with Gordon MacRae and Shirley Jones? Arguments will abound for both sides, but at some point the comparison becomes superfluous. The two were created several decades apart, with different approaches and ideas about the story. Suffice it to say, this is and excellent performance, with solid direction, good choreography, and a strong cast. That is recommendation enough.


--------------------------------------
General
Complete name : Oklahoma
Format : AVI
Format/Info : Audio Video Interleave
File size : 1.37 GiB
Duration : 2h 50mn
Overall bit rate : 1 154 Kbps
Movie name : DVD_VOLUME.Title2.DVDRip
Writing application : Lavf52.17.0
Original source form/Name : DVD_VOLUME

Video
Format : MPEG-4 Visual
Format profile : [email protected]
Format settings, BVOP : No
Format settings, QPel : No
Format settings, GMC : No warppoints
Format settings, Matrix : Default
Codec ID : XVID
Codec ID/Hint : XviD
Duration : 2h 50mn
Bit rate : 1 077 Kbps
Width : 704 pixels
Height : 400 pixels
Display aspect ratio : 16/9
Frame rate : 25.000 fps
Resolution : 24 bits
Colorimetry : 4:2:0
Scan type : Progressive
Bits/(Pixel*Frame) : 0.153
Stream size : 1.28 GiB (93%)
Writing library : XviD 1.1.2 (UTC 2006-11-01)

Audio
Format : MPEG Audio
Format version : Version 1
Format profile : Layer 3
Codec ID : 55
Codec ID/Hint : MP3
Duration : 2h 50mn
Bit rate mode : Constant
Bit rate : 64.0 Kbps
Channel(s) : 2 channels
Sampling rate : 48.0 KHz
Resolution : 16 bits
Stream size : 77.9 MiB (6%)
Alignment : Aligned on interleaves
Interleave, duration : 24 ms (0.60 video frame)

related torrents

Torrent name

health leech seeds Size
 


comments (0)

Main Menu