Other

HUNCHBACK OF NOTREDAME 2THE SECRET OF THE BELLDVDRIPENG KIDZCORNER&J T R

  • Download 5x Faster
  • Download torrent
  • Direct Download
  • Rate this torrent +  |  -
HUNCHBACK OF NOTREDAME 2THE SECRET OF THE BELLDVDRIPENG KIDZCORNER&J T R

Free and Direct Download with Usenet.nl 300GB+ free


Torrent info

Name:HUNCHBACK OF NOTREDAME 2THE SECRET OF THE BELLDVDRIPENG KIDZCORNER&J T R

Total Size: 699.19 MB

Magnet: Magnet Link

Seeds: 5

Leechers: 2

Stream: Watch Online @ Movie4u

Last Updated: 0000-00-00 00:00:00 (Update Now)

Torrent added: 2008-12-16 20:33:51





Torrent Files List


460235_DV_L_B.JPG (Size: 699.19 MB) (Files: 5)

 460235_DV_L_B.JPG

43.53 KB

 460235_DV_L_F.JPG

35.63 KB

 HUNCHBACK2.avi

699.11 MB

 Torrent downloaded from Demonoid.com.txt

0.05 KB

 Tracked by moviesb4time.biz.txt

1.35 KB
 

Announce URL: http://inferno.demonoid.com:3402/announce

Torrent description

Return to the magnificence of Notre Dame in Disney's all-new movie, The hunchback Of Notre Dame II - The Secret Of The Bell, a fun, romantic adventure told with vibrant animation and music as glorious as it's setting.
Quasimodo and all of his friends reunite in this thrilling escapade as the loveable yet lonely bell ringer takes on the evil circus owner, Sarousch. A master of sorcery, Sarousch plots to steal the Cathedra's famous bell, La Fidele - forcing his assistant and Quasi's new friend, Madellaine, to help him. When Esmeralda's little boy, Zephy, tries to stop Sarousch, Quasi must race to the rescue of his small pal and the jewelled bell. Ignoring some hilarious advice from his gargoyle buddies, Quasi listens to his own brave heart - and discovers that he, to must look past appearances to learn to trust.
Disney's legendary tale continues with this comical, magical musical celebration of the beauty
inside everyone.

General
Complete name : C:\Users\joker\Documents\HUNCHBACK OF NOTREDAME 2[THE SECRET OF THE BELL][DVDRIP][ENG]-KIDZCORNER&J.T.R\HUNCHBACK2.avi
Format : AVI
Format/Info : Audio Video Interleave
File size : 699 MiB
Duration : 1h 3mn
Overall bit rate : 1 547 Kbps
Writing application : FairUse Wizard - http://fairusewizard.com
Writing library : The best and REALLY easy backup tool

Video
Format : MPEG-4 Visual
Format profile : Streaming [email protected]
Format settings, BVOP : Yes
Format settings, QPel : No
Format settings, GMC : No warppoints
Format settings, Matrix : Default
Muxing mode : Packed bitstream
Codec ID : XVID
Codec ID/Hint : XviD
Duration : 1h 3mn
Bit rate : 1 409 Kbps
Width : 624 pixels
Height : 384 pixels
Display aspect ratio : 1.625
Frame rate : 25.000 fps
Resolution : 24 bits
Colorimetry : 4:2:0
Scan type : Progressive
Bits/(Pixel*Frame) : 0.235
Stream size : 637 MiB (91%)
Writing library : XviD 1.2.0.dev47 (UTC 2006-11-01)

Audio
Format : MPEG Audio
Format version : Version 1
Format profile : Layer 3
Codec ID : 55
Codec ID/Hint : MP3
Duration : 1h 3mn
Bit rate mode : Constant
Bit rate : 128 Kbps
Minimum bit rate : 128 Kbps
Channel(s) : 2 channels
Sampling rate : 48.0 KHz
Resolution : 16 bits
Stream size : 57.8 MiB (8%)
Alignment : Aligned on interleaves
Interleave, duration : 40 ms (1.00 video frame)
Interleave, preload duration : 504 ms
Writing library : LAME3.97
Encoding settings : CBR

related torrents

Torrent name

health leech seeds Size
 

comments (0)

Main Menu