Documentary

HBO Films: Baghdad High (2008)

  • Download 5x Faster
  • Download torrent
  • Direct Download
  • Rate this torrent +  |  -
HBO Films: Baghdad High (2008)

Free and Direct Download with Usenet 300GB+ free


Torrent info

Name:HBO Films: Baghdad High (2008)

Total Size: 656.42 MB

Magnet: Magnet Link

Seeds: 7

Leechers: 8

Stream: Watch Online @ Movie4u

Last Updated: 2010-09-20 23:29:21 (Update Now)

Torrent added: 2008-12-16 20:33:30




Torrent Files List


HBO.Films.Baghdad.High.2008.TVrip.640x480.xvid.mp3-snach.avi (Size: 656.42 MB) (Files: 1)

 HBO.Films.Baghdad.High.2008.TVrip.640x480.xvid.mp3-snach.avi

656.42 MB
 

Announce URL: http://tracker.thepiratebay.org:80/announce

Torrent description

--This is my own TV capture--
HBO Documentary Films: BAGHDAD HIGH (2008)


Program Info
** 2008 TRIBECA FILM FESTIVAL - OFFICIAL SELECTION **

Directed by Ivan O'Mahoney & Laura Winter
80 Minutes

Baghdad High views the current war in Iraq through the eyes of four Iraqi teens as they enter their senior year of high school. Filmed by the boys themselves, the documentary follows their friendships during the entire academic year and offers unique insight into ordinary adolescent Iraqi lives.

"The daily news about Iraq was so relentlessly depressing for so many years," says Ivan O'Mahoney, who directed and produced the film with Laura Winter. "It was therefore fantastic to realize while making this film that there is normality amidst all the violence, and that people do lead normal lives, despite the mayhem around them. It gave me a lot of hope to see kids be kids."

Collectively, the teens recorded more than 300 hours of tape, which were woven into the final project by the supervising producers. A mix of religious and ethnic backgrounds, the young men featured in BAGHDAD HIGH include: Hayder, who yearns to be a singer-songwriter; Anmar, who thinks he is a stud with girls and plays soccer like David Beckham; Ali, who dreams of being an architect; and his best friend Mohammed, who doesn't yet know what he wants to be, and is content being the joker of the bunch. They could be teens in any city around the world, talking about celebrities like Britney Spears, debating who has the best-ripped jeans and discussing whose hair is a disaster. But their lives are actually very different: Every day, they are surrounded by suicide bombings, mortar attacks, kidnappings and citywide curfews.

Notes co-director and co-producer Laura Winter, "One of the things I was struck by was that all these documentaries coming out of Iraq were done for, or by, adults. Iraqi children had not been more than a UN statistic about the dead, kidnapped or injured."

The first day of school - Oct. 1, 2006 - marks the beginning of the most violent month since America invaded Iraq. That month, 2,722 men, women and children die, many because of their religion. However, the boys don't let religious, ethnic or economic differences come between them.

They often miss school because leaving the house is too dangerous. They debate whether they can hang out with each other after school, because the short journey home afterward means running the risk of being injured by a roadside bomb or a stray bullet. Even if they want to study, concentration is difficult in a war zone, and the electricity often goes out unexpectedly for hours or days at a time. As the city is torn apart by sectarian violence, each of the 17-year-olds and his family struggle to make a critical decision - stay in Baghdad and risk their lives, or flee to safer areas. Every day, nearly 2,000 Baghdad residents leave, joining some four million refugees who are already relocated around the country or live in Jordan and Syria.

"The fact that the kids are all from different backgrounds, and yet remained friends as their city was torn to bits by sectarian violence, was one of the most satisfying parts of making BAGHDAD HIGH," states Laura Winter. "It filled us with great hope for Iraq's future - and maybe ours, too."

BAGHDAD HIGH is a Renegade Pictures and StoryLabTV Production for HBO, BBC & ARTE; produced and directed by Ivan O'Mahoney & Laura Winter; editors, Richard Guard & Johnny Burke; executive producers, Alan Hayling, Karen O'Connor (for BBC), Hans Robert Eisenhauer (for ARTE); co-producer, Alex Cooke; associate producers, Fallah Al Rubaie & Zaid H. Fahmi (Baghdad). For HBO: consulting editors, Victoria Ford and Geof Bartz, A.C.E.; supervising producer, Lisa Heller; executive producer, Sheila Nevins.

http://www.imdb.com/title/tt1192865/

Country Date
UK 7 November 2007 (Sheffield Film Festival)
UK 8 January 2008
France 18 March 2008
USA April 2008 (Tribeca Film Festival)
Australia 1 July 2008
Denmark 23 September 2008 (BUSTER Copenhagen International Film Festival for Children and Youth)


Video Info
HBO.Films.Baghdad.High.2008.TVrip.640x480.xvid.mp3-snach.avi

Format : AVI
Format/Info : Audio Video Interleave
File size : 656 MiB
Duration : 1h 21mn
Overal bit rate : 1120 Kbps
Writing application : MediaCoder 0.6

Video
Format : MPEG-4 Visual
Format profile : [email protected]
Format settings, BVOP : No
Format settings, QPel : No
Format settings, GMC : No warpoints
Format settings, Matrix : Default
Codec ID : XVID
Codec ID/Hint : XviD
Duration : 1h 21mn
Bit rate : 994 Kbps
Width : 640 pixels
Height : 480 pixels
Display aspect ratio : 4/3
Frame rate : 29.970 fps
Resolution : 8 bits
Colorimetry : 4:2:0
Scan type : Progressive
Bits/(Pixel*Frame) : 0.108
Stream size : 583 MiB
Writing library : XviD 1.2.0.dev47 (UTC 2006-11-01)

Audio
Format : MPEG Audio
Format version : Version 1
Format profile : Layer 3
Codec ID : 55
Codec ID/Hint : MP3
Duration : 1h 21mn
Bit rate mode : Constant
Bit rate : 112 Kbps
Channel(s) : 2 channels
Sampling rate : 44.1 KHz
Resolution : 16 bits
Stream size : 65.7 MiB

Trackers:
http://tracker.conspiracycentral.net/announce
http://tracker.thepiratebay.org:80/announce
http://open.tracker.thepiratebay.org/announce
http://torrent-downloads.to:5869/announce
http://denis.stalker.h3q.com:6969/announce
http://www.sumotracker.com/announce

Visit us at:
http://ConspiracyCentral.net

Enjoy & Seed!

related torrents

Torrent name

health leech seeds Size
 

comments (0)

Main Menu