House

Dr House Staffel 1 German DVD Rip XviD

  • Download 5x Faster
  • Download torrent
  • Direct Download
  • Rate this torrent +  |  -
Dr House Staffel 1 German DVD Rip XviD

Anonymous and Direct Download 300GB+ free


Torrent info

Name:Dr House Staffel 1 German DVD Rip XviD

Total Size: 6.84 GB

Magnet: Magnet Link

Seeds: 0

Leechers: 0

Stream: Watch Online @ Movie4u

Last Updated: 2016-01-12 20:27:00 (Update Now)

Torrent added: 2008-12-16 16:55:15




Torrent Files List


01 - Schmerzensgrenzen.avi (Size: 6.84 GB) (Files: 20)

 01 - Schmerzensgrenzen.avi

349.98 MB

 02 - Falsche Geschichten.avi

350.04 MB

 03 - Das Ende danach.avi

350.14 MB

 04 - Nichts hilft.avi

350.09 MB

 05 - Nur die Braut Christi.avi

350.01 MB

 08 - Geiz ist Gift.avi

350.06 MB

 09 - Leben wider Willen.avi

350.03 MB

 10 - Letzte Suche.avi

350.03 MB

 11 - Tod aus der Wand.avi

350.07 MB

 12 - Schlechter Boden.avi

350.25 MB

 13 - Vaterfluch.avi

350.17 MB

 14 - Schlank und Krank.avi

350.11 MB

 15 - Solche Leute bitte nicht.avi

350.19 MB

 16 - Schoenheitsirreale.avi

349.93 MB

 17 - Versteckte Wahrheit.avi

350.20 MB

 18 - Verluste.avi

349.94 MB

 19 - Epidemie.avi

350.14 MB

 20 - Liebeshiebe.avi

350.01 MB

 21 - Drei Beine.avi

350.12 MB

 22 - Risiken.avi

350.19 MB
 

tracker

leech seeds
 

Torrent description



...::::Edelweis-Group Presents::::...

Torrent Name: Dr. House Complete Staffel 1

-------------------------

--> Movie/Serie

Sprache: [X] Deutsch [ ] Englisch [ ] siehe Beschreibung

Video: [ ] HDTV [X] DVD [ ] TV/dTV [ ] TS [ ] Cam [ ] Sonstiges
Audio: [ ] AC3 [X] DVD [ ] TV/dTV [ ] LD [ ] Micro [ ] Sonstiges

Genre: TV-Serie/Krankenhaus/Comedy


Untertitel: keine

Extras: keine



-------------------------
Beschreibung:
Die Titelfigur, Dr. Gregory House, dargestellt durch den britischen Schauspieler Hugh Laurie, praktiziert als Arzt am fiktiven

Princeton-Plainsboro Teaching Hospital, ein Lehrkrankenhaus in New Jersey. Er ist Spezialist auf den Gebieten der Nephrologie sowie

Infektionskrankheiten und ist Leiter der Abteilung Diagnostische Medizin. House traegt aeusserst selten Arztkleidung und benoetigt wegen

eines schlecht behandelten Blutgerinnsels und einem herausgenommenem Muskel in seinem Bein eine Gehhilfe und ist aufgrund der damit

zusammenhaengenden Schmerzen stark abhaengig von dem Schmerzmittel Vicodin. Wie es zu seinen Gebrechen kommt, wird in der Episode Drei

Beine beschrieben. Er selbst sagt, dass er die Tabletten nur schlucke, weil er ein Schmerzproblem haette und nicht, wie einige seiner

Kollegen meinen, ein Schmerzmittelproblem. Allerdings gibt er in der spaeteren Episode Tod aus der Wand zu, dass er suechtig sei, dies aber

kein Problem darstelle, da er "funktioniere".

-------------------------
Teschnische Details:
General
Format : AVI
Format/Info : Audio Video Interleave
File size : 350 MiB
Duration : 44mn 0s
Overall bit rate : 1112 Kbps
Writing application : Nandub v1.0rc2
Writing library : Nandub build 1852/release

Video
Format : MPEG-4 Visual
Format profile : Streaming [email protected]
Format settings, BVOP : Yes
Format settings, QPel : No
Format settings, GMC : No warppoints
Format settings, Matrix : Default
Codec ID : XVID
Codec ID/Hint : XviD
Duration : 44mn 0s
Bit rate : 967 Kbps
Width : 624 pixels
Height : 352 pixels
Display aspect ratio : 16/9
Frame rate : 23.976 fps
Resolution : 8 bits
Colorimetry : 4:2:0
Scan type : Progressive
Bits/(Pixel*Frame) : 0.184
Stream size : 304 MiB (87)
Writing library : XviD 1.0.3 (UTC 2004-12-20)

Audio
Format : MPEG Audio
Format version : Version 1
Format profile : Layer 3
Codec ID : 55
Codec ID/Hint : MP3
Duration : 44mn 0s
Bit rate mode : Variable
Bit rate : 132 Kbps
Minimum bit rate : 136 Kbps
Channel(s) : 2 channels
Sampling rate : 48.0 KHz
Resolution : 16 bits
Stream size : 41.5 MiB (12)
Alignment : Aligned on interleaves
Interleave, duration : 24 ms (0.58 video frame)
Interleave, preload duration : 133 ms
Writing library : LAME3.96r
Encoding settings : ABR




--------------------------------------------

Note:

Happy leeching und das Seeden nicht vergessen!!

Wuerdigt die Arbeit jedes Uppers mit einen Danke und/oder eines netten Kommentars.

Bin fuer Lob und Kritik stets offen.

--------------------------------------------



NFO File make with ZNFO Maker V6.5
(C)2008 by Edelweis-Group and VX / S4Y Crew

related torrents

Torrent name

health leech seeds Size
 


comments (0)

Main Menu