House

Dr House Staffel 2 German DVD Rip XviD

  • Download 5x Faster
  • Download torrent
  • Direct Download
  • Rate this torrent +  |  -
Dr House Staffel 2 German DVD Rip XviD

Anonymous and Free Direct Download 300GB+


Torrent info

Name:Dr House Staffel 2 German DVD Rip XviD

Total Size: 8.20 GB

Magnet: Magnet Link

Seeds: 0

Leechers: 0

Stream: Watch Online @ Movie4u

Last Updated: 2011-04-16 21:43:50 (Update Now)

Torrent added: 2008-12-16 16:55:12



VPN For Torrents

Torrent Files List


01 - Ihr, ich und Hippokrates.avi (Size: 8.20 GB) (Files: 24)

 01 - Ihr, ich und Hippokrates.avi

350.18 MB

 02 - Autopsie.avi

350.06 MB

 03 - Irrtum.avi

350.08 MB

 04 - Mehr Sein als Schein.avi

350.22 MB

 05 - Soehne und Vaeter.avi

349.85 MB

 06 - Tanz ums Feuer.avi

350.07 MB

 07 - Auf der Jagd.avi

350.03 MB

 08 - Fehlverhalten.avi

349.87 MB

 09 - Lug und Trug.avi

349.96 MB

 10 - Ferndiagnose.avi

350.21 MB

 11 - Absagen.avi

349.94 MB

 12 - Resultate mit Geduld.avi

349.84 MB

 13 - Kratzer im Lack.avi

350.07 MB

 14 - Sex wird unterschaetzt.avi

350.07 MB

 15 - Boeses Spiel.avi

350.04 MB

 16 - Sicher genug.avi

349.94 MB

 17 - In Not.avi

350.04 MB

 18 - Wirtswechsel.avi

349.96 MB

 19 - Wunderland.avi

349.97 MB

 20 - Schlechter Scherz 01.avi

349.80 MB

 21 - Schlechter Scherz 02.avi

349.93 MB

 22 - Ein Problem ist nur das Leben.avi

349.91 MB

 23 - Wer wird Vater.avi

349.84 MB

 24 - Widerspiel.avi

349.87 MB
 

Announce URL:

Torrent description




...::::Edelweis-Group Presents::::...

Torrent Name: Dr. House Complete Staffel 2

-------------------------

--> Movie/Serie

Sprache: [X] Deutsch [ ] Englisch [ ] siehe Beschreibung

Video: [ ] HDTV [X] DVD [ ] TV/dTV [ ] TS [ ] Cam [ ] Sonstiges
Audio: [ ] AC3 [X] DVD [ ] TV/dTV [ ] LD [ ] Micro [ ] Sonstiges

Genre: TV-Serie/Krankenhaus/Comedy


Untertitel: keine

Extras: keine



-------------------------
Beschreibung:
Die Titelfigur, Dr. Gregory House, dargestellt durch den britischen Schauspieler Hugh Laurie, praktiziert als Arzt am fiktiven Princeton-Plainsboro Teaching Hospital, ein Lehrkrankenhaus in New Jersey. Er ist Spezialist auf den Gebieten der Nephrologie sowie Infektionskrankheiten und ist Leiter der Abteilung Diagnostische Medizin. House traegt aeusserst selten Arztkleidung und benoetigt wegen eines schlecht behandelten Blutgerinnsels und einem herausgenommenem Muskel in seinem Bein eine Gehhilfe und ist aufgrund der damit zusammenhaengenden Schmerzen stark abhaengig von dem Schmerzmittel Vicodin. Wie es zu seinen Gebrechen kommt, wird in der Episode Drei Beine beschrieben. Er selbst sagt, dass er die Tabletten nur schlucke, weil er ein Schmerzproblem haette und nicht, wie einige seiner Kollegen meinen, ein Schmerzmittelproblem. Allerdings gibt er in der spaeteren Episode Tod aus der Wand zu, dass er suechtig sei, dies aber kein Problem darstelle, da er "funktioniere".

-------------------------
Teschnische Details:
General
Format : AVI
Format/Info : Audio Video Interleave
File size : 350 MiB
Duration : 41mn 56s
Overall bit rate : 1168 Kbps
Writing application : Nandub v1.0rc2
Writing library : Nandub build 1852/release

Video
Format : MPEG-4 Visual
Format profile : Streaming [email protected]
Format settings, BVOP : Yes
Format settings, QPel : No
Format settings, GMC : No warppoints
Format settings, Matrix : Default
Codec ID : XVID
Codec ID/Hint : XviD
Duration : 41mn 56s
Bit rate : 1015 Kbps
Width : 624 pixels
Height : 352 pixels
Display aspect ratio : 16/9
Frame rate : 24.999 fps
Original frame rate : 23.976 fps
Resolution : 8 bits
Colorimetry : 4:2:0
Scan type : Progressive
Bits/(Pixel*Frame) : 0.185
Stream size : 304 MiB (87)
Writing library : XviD 1.0.3 (UTC 2004-12-20)

Audio
Format : MPEG Audio
Format version : Version 1
Format profile : Layer 3
Codec ID : 55
Codec ID/Hint : MP3
Duration : 41mn 55s
Bit rate mode : Variable
Bit rate : 139 Kbps
Minimum bit rate : 142 Kbps
Channel(s) : 2 channels
Sampling rate : 48.0 KHz
Resolution : 16 bits
Stream size : 41.8 MiB (12)
Alignment : Aligned on interleaves
Interleave, duration : 24 ms (0.60 video frame)
Interleave, preload duration : 126 ms
Writing library : LAME3.96r
Encoding settings : ABR





--------------------------------------------

Note:

Happy leeching und das Seeden nicht vergessen!!

Wuerdigt die Arbeit jedes Uppers mit einen Danke und/oder eines netten Kommentars.

Bin fuer Lob und Kritik stets offen.

--------------------------------------------



NFO File make with ZNFO Maker V6.5
(C)2008 by Edelweis-Group and VX / S4Y Crew

related torrents

Torrent name

health leech seeds Size
 


comments (0)

Main Menu