House

Dr House Staffel 3 German DVD Rip XviD

  • Download 5x Faster
  • Download torrent
  • Direct Download
  • Rate this torrent +  |  -
Dr House Staffel 3 German DVD Rip XviD

Anonymous and Free Direct Download 300GB+


Torrent info

Name:Dr House Staffel 3 German DVD Rip XviD

Total Size: 6.01 GB

Magnet: Magnet Link

Seeds: 0

Leechers: 0

Stream: Watch Online @ Movie4u

Last Updated: 2015-08-30 13:13:00 (Update Now)

Torrent added: 2008-12-16 16:55:12



VPN For Torrents

Torrent Files List


Dr.House.S03E01.Einer.gegen.alle.avi (Size: 6.01 GB) (Files: 17)

 Dr.House.S03E01.Einer.gegen.alle.avi

350.37 MB

 Dr.House.S03E02 Zu den Sternen.avi

388.18 MB

 Dr.House.S03E03 Heimgang.avi

350.07 MB

 Dr.House.S03E04 Sandkastenspiele.avi

350.49 MB

 Dr.House.S03E05.Konsequenzen.avi

388.57 MB

 Dr.House.S03E06.Que.sera.sera.avi

349.68 MB

 Dr.House.S03E07.Koma.Mann.und.Sohn.avi

350.41 MB

 Dr.House.S03E08.Zwietracht.avi

349.88 MB

 Dr.House.S03E09.Judas.avi

349.30 MB

 Dr.House.S03E10.Unfrohes.Fest.avi

350.23 MB

 Dr.House.S03E11.Dr.Cuddys.grosse.Luege.avi

392.51 MB

 Dr.House.S03E12.Zwangsarbeit.avi

348.21 MB

 Dr.House.S03E20.Suendenbock.mit.Freunden.avi

350.73 MB

 Dr.House.S03E21.Auf.der.Kippe.avi

392.28 MB

 Dr.House.S03E22.Kuendigung.avi

349.86 MB

 Dr.House.S03E23.Es.nerven.Gross.und.Klein.avi

350.97 MB

 Dr.House.S03E24.Menschen.machen.Fehler.avi

392.08 MB
 

tracker

leech seeds
 

Torrent description




...::::Edelweis-Group Presents::::...

Torrent Name: Dr. House Complete Staffel 2

-------------------------

--> Movie/Serie

Sprache: [X] Deutsch [ ] Englisch [ ] siehe Beschreibung

Video: [ ] HDTV [X] DVD [ ] TV/dTV [ ] TS [ ] Cam [ ] Sonstiges
Audio: [ ] AC3 [X] DVD [ ] TV/dTV [ ] LD [ ] Micro [ ] Sonstiges

Genre: TV-Serie/Krankenhaus/Comedy


Untertitel: keine

Extras: keine



-------------------------
Beschreibung:
Die Titelfigur, Dr. Gregory House, dargestellt durch den britischen Schauspieler Hugh Laurie, praktiziert als Arzt am fiktiven Princeton-Plainsboro Teaching Hospital, ein Lehrkrankenhaus in New Jersey. Er ist Spezialist auf den Gebieten der Nephrologie sowie Infektionskrankheiten und ist Leiter der Abteilung Diagnostische Medizin. House traegt aeusserst selten Arztkleidung und benoetigt wegen eines schlecht behandelten Blutgerinnsels und einem herausgenommenem Muskel in seinem Bein eine Gehhilfe und ist aufgrund der damit zusammenhaengenden Schmerzen stark abhaengig von dem Schmerzmittel Vicodin. Wie es zu seinen Gebrechen kommt, wird in der Episode Drei Beine beschrieben. Er selbst sagt, dass er die Tabletten nur schlucke, weil er ein Schmerzproblem haette und nicht, wie einige seiner Kollegen meinen, ein Schmerzmittelproblem. Allerdings gibt er in der spaeteren Episode Tod aus der Wand zu, dass er suechtig sei, dies aber kein Problem darstelle, da er "funktioniere".

-------------------------
Teschnische Details:
General
Format : AVI
Format/Info : Audio Video Interleave
File size : 350 MiB
Duration : 41mn 49s
Overall bit rate : 1171 Kbps
Writing application : MEncoder dev-SVN-rUNKNOWN-4.1.2
Writing library : MPlayer

Video
Format : MPEG-4 Visual
Format profile : Streaming [email protected]
Format settings, BVOP : Yes
Format settings, QPel : No
Format settings, GMC : No warppoints
Format settings, Matrix : Default
Codec ID : XVID
Codec ID/Hint : XviD
Duration : 41mn 49s
Bit rate : 1028 Kbps
Width : 640 pixels
Height : 352 pixels
Display aspect ratio : 16/9
Frame rate : 25.000 fps
Resolution : 8 bits
Colorimetry : 4:2:0
Scan type : Progressive
Bits/(Pixel*Frame) : 0.183
Stream size : 308 MiB (88)
Writing library : XviD 1.2.0.dev47 (UTC 2006-11-01)

Audio
Format : MPEG Audio
Format version : Version 1
Format profile : Layer 3
Codec ID : 55
Codec ID/Hint : MP3
Duration : 41mn 49s
Bit rate mode : Variable
Bit rate : 130 Kbps
Minimum bit rate : 128 Kbps
Channel(s) : 2 channels
Sampling rate : 48.0 KHz
Resolution : 16 bits
Stream size : 39.0 MiB (11)
Alignment : Aligned on interleaves
Interleave, duration : 24 ms (0.60 video frame)
Interleave, preload duration : 141 ms
Writing library : LAME3.97
Encoding settings : ABR






--------------------------------------------

Note:

Happy leeching und das Seeden nicht vergessen!!

Wuerdigt die Arbeit jedes Uppers mit einen Danke und/oder eines netten Kommentars.

Bin fuer Lob und Kritik stets offen.

--------------------------------------------



NFO File make with ZNFO Maker V6.5
(C)2008 by Edelweis-Group and VX / S4Y Crew

related torrents

Torrent name

health leech seeds Size
 


comments (0)

Main Menu