TV - Other

Nils Holgerson Season 2 19 35 von 52

  • Download 5x Faster
  • Download torrent
  • Direct Download
  • Rate this torrent +  |  -
Nils Holgerson Season 2 19 35 von 52

Free and Direct Download with Usenet 300GB+ free


Torrent info

Name:Nils Holgerson Season 2 19 35 von 52

Total Size: 2.90 GB

Magnet: Magnet Link

Seeds: 1

Leechers: 0

Stream: Watch Online @ Movie4u

Last Updated: 0000-00-00 00:00:00 (Update Now)

Torrent added: 2008-12-16 16:55:02




Torrent Files List


Nils Holgersson - 19 - Der grosse Vogelsee.avi (Size: 2.90 GB) (Files: 17)

 Nils Holgersson - 19 - Der grosse Vogelsee.avi

174.60 MB

 Nils Holgersson - 20 - Graufell.avi

174.65 MB

 Nils Holgersson - 21 - Die Natter hilflos.avi

175.03 MB

 Nils Holgersson - 22 - Der hartherzige Bauer.avi

174.63 MB

 Nils Holgersson - 23 - Bei den Baeren.avi

174.52 MB

 Nils Holgersson - 24 - Uppsala.avi

174.65 MB

 Nils Holgersson - 25 - Walpurgisnacht.avi

174.63 MB

 Nils Holgersson - 26 - Der Schwanenkoenig.avi

174.69 MB

 Nils Holgersson - 27 - Bataki in der Falle.avi

174.58 MB

 Nils Holgersson - 28 - Der Schmied von Dalarna.avi

174.63 MB

 Nils Holgersson - 29 - Fluegelschoen und Goldauge.avi

174.62 MB

 Nils Holgersson - 30 - Der Kettenhund.avi

174.60 MB

 Nils Holgersson - 31 - Der Geiger Clement.avi

174.77 MB

 Nils Holgersson - 32 - Der Adler Gorgo.avi

174.68 MB

 Nils Holgersson - 33 - Hunger.avi

174.59 MB

 Nils Holgersson - 34 - Die Neujahrsnacht der Tiere.avi

174.59 MB

 Nils Holgersson - 35 - Der Waldbrand.avi

174.96 MB
 

Announce URL: http://wreckingcrew.mobi/announce.php

Torrent description



...::::Edelweis-Group Presents::::...

Torrent Name: Nils Holgerson Season 2 19-35 von 52

-------------------------

--> Movie/Serie

Sprache: [X] Deutsch [ ] Englisch [ ] siehe Beschreibung

Video: [ ] HDTV [ ] DVD [X] TV/dTV [ ] TS [ ] Cam [ ] Sonstiges
Audio: [ ] AC3 [ ] DVD [X] TV/dTV [ ] LD [ ] Micro [ ] Sonstiges

Genre: TV-Serie/Klassiker/Kinder


Untertitel: keine

Extras: keine



-------------------------
Beschreibung:
Trickfilm nach dem Maerchen der Schwedin Selma Lagerloeff:

Der vierzehnjaehrige Nils Holgersson aergert die Tiere auf dem elterlichen
Bauernhof und treibt auch sonst ueble Spe. Ein Wichtelmaennchen verwandelt
ihn zur Strafe in einen Zwerg, und auch der unschuldige Hamster Kruemel
bleibt nicht verschont. Nils versteht nun die Sprache aller Tiere und
schliesst sich zusammen mit Hausganter Martin Wildgaensen an, die nach
Lappland fliegen wollen.


-------------------------
Teschnische Details:
General
Format : AVI
Format/Info : Audio Video Interleave
File size : 175 MiB
Duration : 24mn 44s
Overall bit rate : 987 Kbps
Writing application : VirtualDubMod 1.5.10.1 (build 2439/release)
Writing library : VirtualDubMod build 2439/release

Video
Format : MPEG-4 Visual
Format profile : Streaming Video@L1
Format settings, BVOP : Yes
Format settings, QPel : No
Format settings, GMC : No warppoints
Format settings, Matrix : Default
Codec ID : XVID
Codec ID/Hint : XviD
Duration : 24mn 44s
Bit rate : 864 Kbps
Width : 576 pixels
Height : 432 pixels
Display aspect ratio : 4/3
Frame rate : 25.000 fps
Resolution : 8 bits
Colorimetry : 4:2:0
Scan type : Progressive
Bits/(Pixel*Frame) : 0.139
Stream size : 153 MiB (88)
Writing library : XviD 1.0.1 (UTC 2004-06-05)

Audio
Format : MPEG Audio
Format version : Version 1
Format profile : Layer 3
Codec ID : 55
Codec ID/Hint : MP3
Duration : 24mn 44s
Bit rate mode : Variable
Bit rate : 109 Kbps
Nominal bit rate : 128 Kbps
Channel(s) : 2 channels
Sampling rate : 48.0 KHz
Resolution : 16 bits
Stream size : 19.4 MiB (11)
Alignment : Aligned on interleaves
Interleave, duration : 24 ms (0.60 video frame)
Interleave, preload duration : 526 ms
Writing library : LAME3.90.
Encoding settings : ABR




--------------------------------------------

Note:

Happy leeching und das Seeden nicht vergessen!!

Wuerdigt die Arbeit jedes Uppers mit einen Danke und/oder eines netten Kommentars.

Bin fuer Lob und Kritik stets offen.

--------------------------------------------



NFO File make with ZNFO Maker V6.5
(C)2008 by Edelweis-Group and VX / S4Y Crew

related torrents

Torrent name

health leech seeds Size

Nils Holgerson eXtra_Army

0 0 424.23 MB 0

Nils holgerson season2

0 0 2.00 GB 0

Nils holgerson season3

0 0 2.00 GB 0
 

comments (0)

Main Menu