Drama

An American Carol2008 Dvdrip Engsubs MP3 RoCK&BlueLadyRG

  • Download 5x Faster
  • Download torrent
  • Direct Download
  • Rate this torrent +  |  -
An American Carol2008 Dvdrip Engsubs MP3 RoCK&BlueLadyRG

Free and Direct Download with Usenet.nl 300GB+ free


Torrent info

Name:An American Carol2008 Dvdrip Engsubs MP3 RoCK&BlueLadyRG

Total Size: 697.96 MB

Magnet: Magnet Link

Seeds: 1

Leechers: 60

Stream: Watch Online @ Movie4u

Last Updated: 2010-04-04 17:42:22 (Update Now)

Torrent added: 2008-12-16 16:41:05





Torrent Files List


An.American.Carol[2008].Dvdrip.[Engsubs].MP3-RoCK&BlueLadyRG.avi (Size: 697.96 MB) (Files: 3)

 An.American.Carol[2008].Dvdrip.[Engsubs].MP3-RoCK&BlueLadyRG.avi

697.73 MB

 An.American.Carol[2008].Dvdrip.[Engsubs].MP3-RoCK&BlueLadyRG.nfo

4.41 KB

 An.American.Carol[2008].Dvdrip.[Engsubs].MP3-RoCK&BlueLadyRG.srt

233.61 KB
 

Announce URL: http://vip.tracker.thepiratebay.org:80/announce

Torrent description


RoCK & BlueLady RG

*******************************************************************************
Proudly presents: An American Carol
*******************************************************************************

-------------------------------------------------------------------------------
General Information
-------------------------------------------------------------------------------
Type : Movie
Burn Tested : Yes
Subtitles : none
: Dutch can be found on http://www.genesis-sp.com

Format : AVI
Format/Info : Audio Video Interleave
File size : 698 MiB
Duration : 1h 22mn
Overall bit rate : 1 184 Kbps
Writing application : AVI-Mux GUI 1.17.7, Aug 8 2006 20:59:17
Writing library : VirtualDub build 30009/release

Audio
Format : MPEG Audio
Format version : Version 1
Format profile : Layer 3
Codec ID : 55
Codec ID/Hint : MP3
Duration : 1h 22mn
Bit rate mode : Variable
Bit rate : 130 Kbps
Nominal bit rate : 128 Kbps
Channel(s) : 2 channels
Sampling rate : 48.0 KHz
Resolution : 16 bits
Stream size : 76.5 MiB (11%)
Alignment : Aligned on interleaves
Interleave, duration : 24 ms (0.72 video frame)
Interleave, preload duration : 142 ms
Writing library : LAME3.90.
Encoding settings : ABR

Video
Format : MPEG-4 Visual
Format settings, BVOP : No
Format settings, QPel : No
Format settings, GMC : No warppoints
Format settings, Matrix : Default
Codec ID : XVID
Codec ID/Hint : XviD
Duration : 1h 22mn
Bit rate : 1 040 Kbps
Width : 560 pixels
Height : 304 pixels
Display aspect ratio : 16/9
Frame rate : 29.970 fps
Resolution : 24 bits
Colorimetry : 4:2:0
Scan type : Progressive
Bits/(Pixel*Frame) : 0.204
Stream size : 613 MiB (88%)
Writing library : XviD 1.0.3 (UTC 2004-12-20)


Source : Retail-DVD
Original Format : PAL
Genre : Drama/Romance
IMDb Rating : 5.8 (1,202 Votes)
Movie Information : http://www.imdb.com/title/tt1024255/
DVD Retail Date : december 8, 2008

-------------------------------------------------------------------------------
Post Information
-------------------------------------------------------------------------------
Posted by............: RoCK (http://www.genesis-sp.com)
Posted on............: 15-12-2008

-------------------------------------------------------------------------------
Release Notes
-------------------------------------------------------------------------------
A rebellious Malibu princess is shipped off to a strict English boarding school
by her father.

Director: David Zucker

Writers : David Zucker
Myrna Sokoloff

Cast :

Trace Adkins ... Angel of Death / Trace Adkins
Kevin P. Farley ... Michael Malone (as Kevin Farley)
Kelsey Grammer ... General George S. Patton
Chriss Anglin ... John F. Kennedy
Robert Davi ... Aziz
Serdar Kalsin ... Ahmed
Bill O'Reilly ... Himself
Geoffrey Arend ... Mohammed
Dennis Hopper ... The Judge
Jillian Murray ... Heather
Scott Bailey ... Celebrity #2
Dana Lyn Baron ... Speaker 1940's
Mark Vafiades ... Look out! It's those Christians! (as Mark Basil)
Jon Voight ... George Washington
Morgan Beck ... "Free History Term Papers"


Enjoy this movie!



------------------------------------------------------------------------------------------
You can find us both at: http://www.genesis-sp.com/
------------------------------------------------------------------------------------------

related torrents

Torrent name

health leech seeds Size
 

comments (0)

Main Menu