Movies

Katt Williams(h 264)the Pimp Chronicles milliondollaman1

  • Download 5x Faster
  • Download torrent
  • Direct Download
  • Rate this torrent +  |  -
Katt Williams(h 264)the Pimp Chronicles milliondollaman1

Free and Direct Download with Usenet 300GB+ free


Torrent info

Name:Katt Williams(h 264)the Pimp Chronicles milliondollaman1

Total Size: 737.51 MB

Magnet: Magnet Link

Seeds: 0

Leechers: 0

Stream: Watch Online @ Movie4u

Last Updated: 2011-02-06 15:08:28 (Update Now)

Torrent added: 2009-09-24 20:10:01




Torrent Files List


 

Announce URL: http://inferno.demonoid.com:3389/announce

Torrent description

Katt Williams(H.264)American Hustle-The Movie-MILLIONDOLLAMAN1



THIS IS A FUNNY ASS DUDE-BEST COMEDIAN IN MY OPINION.VIDEO IS ENCODED WITH H.264 WHICH

ALLOWS ALOT MORE QUALITY THAN DIVX OR XVID IN A MUCH SMALLER FILE SIZE-THE

H.264 CODEC IS BEAUTIFUL-BEST QUALITY SMALLEST FILE SIZE-WHAT MORE DO WE NEED.THIS

700 MB H.264 FILE IS EQUAL TO A 1.6 GB OR MORE SIZE DIVX OR XVID.IVE INCLUDED DIVX 7 WHICH NOW

SUPPORTS H.264 PLAYBACK-INSTALL DIVX 7 & PLAY THE FILE(EASY).IVE ALSO INCLUDED VLC MEDIA

PLAYER WHICK CAN PLAY H.264 WITHOUT INSTALLING DIVX 7-VLC ALSO HAS MANY MORE CODECS BUILT

IN(BEAUTIFUL MEDIA PLAYER).BY INSTALLING DIVX 7 U CAN PLAY BACK H.264 ON YOUR PREFERRED

MEDIA PLAYER.ALL OF MY VIDEOS WILL ALWAYS BE ENCODED TO H.264-SO JUST SEARCH MILLIONDOLLAMAN1

IN GOOGLE TO FIND MORE OF MY BEAUTIFUL QUALITY H.264 MOVIE TORRENTS.IVE ALSO INCLUDED

MY KATT WILLIAMS AMERICAN HUSTLE TORRENT AND ITS PIMPIN PIMPIN....









General

Complete name : Katt Williams(H.264)The Pimp Chronicles-MILLIONDOLLAMAN1

Format : AVI

Format/Info : Audio Video Interleave

File size : 700 MiB

Duration : 45mn 15s

Overall bit rate : 2 163 Kbps



Video

ID : 0

Format : AVC

Format/Info : Advanced Video Codec

Format profile : [email protected]

Format settings, CABAC : Yes

Format settings, ReFrames : 2 frames

Codec ID : H264

Duration : 45mn 15s

Bit rate : 1 989 Kbps

Nominal bit rate : 2 000 Kbps

Width : 640 pixels

Height : 310 pixels

Display aspect ratio : 2.065

Frame rate : 29.970 fps

Resolution : 24 bits

Colorimetry : 4:2:0

Scan type : Progressive

Bits/(Pixel*Frame) : 0.335

Stream size : 644 MiB (92%)

Writing library : x264 core 65

Encoding settings : cabac=1 / ref=2 / deblock=1:0:0 / analyse=0x1:0x111 / me=umh / subme=6 / psy_rd=1.0:0.0 / mixed_ref=0 / me_range=16 / chroma_me=1 / trellis=0 / 8x8dct=0 / cqm=0 / deadzone=21,11 / chroma_qp_offset=-2 / threads=3 / nr=0 / decimate=1 / mbaff=0 / bframes=2 / b_pyramid=0 / b_adapt=1 / b_bias=0 / direct=1 / wpredb=0 / keyint=300 / keyint_min=30 / scenecut=40(pre) / rc=abr / bitrate=2000 / ratetol=1.0 / qcomp=0.60 / qpmin=10 / qpmax=51 / qpstep=4 / ip_ratio=1.40 / pb_ratio=1.30 / aq=1:1.00

colour_primaries : BT.601-6 525, BT.1358 525, BT.1700 NTSC, SMPTE 170M

transfer_characteristics : BT.709-5, BT.1361

matrix_coefficients : BT.601-6 525, BT.1358 525, BT.1700 NTSC, SMPTE 170M



Audio

ID : 1

Format : MPEG Audio

Format version : Version 1

Format profile : Layer 3

Codec ID : 55

Codec ID/Hint : MP3

Duration : 45mn 15s

Bit rate mode : Constant

Bit rate : 160 Kbps

Channel(s) : 2 channels

Sampling rate : 48.0 KHz

Resolution : 16 bits

Stream size : 51.8 MiB (7%)

Alignment : Split accross interleaves

Interleave, duration : 24 ms (0.72 video frame)

Interleave, preload duration : 1148 ms

Writing library : LAME3.98



related torrents

Torrent name

health leech seeds Size
 

comments (0)