Documentary

Our Origins Made EasyDvDRip XviD mp3 2008Potholer54

  • Download 5x Faster
  • Download torrent
  • Direct Download
  • Rate this torrent +  |  -
Our Origins Made EasyDvDRip XviD mp3 2008Potholer54

Free and Direct Download with Usenet.nl 300GB+ free


Torrent info

Name:Our Origins Made EasyDvDRip XviD mp3 2008Potholer54

Total Size: 691.55 MB

Magnet: Magnet Link

Seeds: 0

Leechers: 0

Stream: Watch Online @ Movie4u

Last Updated: 2013-03-10 16:27:01 (Update Now)

Torrent added: 2008-12-15 16:41:44





Torrent Files List


Our-Origins-Made-Easy.avi (Size: 691.55 MB) (Files: 3)

 Our-Origins-Made-Easy.avi

691.55 MB

 Our-Origins-Made-Easy.nfo

3.61 KB

 Torrent downloaded from Demonoid.com.txt

0.05 KB
 

Announce URL:

Torrent description

Our-Origins-Made-Easy[DvDRip-XviD-mp3-2008]Potholer54

This is a full unedited 691mb XviD AVI version of the 4.17gb Full DVD .ISO in
PAL format that is currently made available for download at the following sites...
Our Origins Made Easy (the 4.17gb Full-DVD PAL .iso)
http://www.mininova.org/tor/2093874
http://www.demonoid.com/files/details/1723624/17594164/
http://www.torrentz.com/search?q=Origins+Made+Easy

I hope many will find this AVI formatted version to be a most suitable and
easier/quicker to download alternative format for those wishing to more easily
playback on a computer in your choice of media player, burn to a CD for
playback in an XviD AVI capable standalone DVD player, or to convert to DVD
(with ConvertXtoDVD or Nero, etc) in either NTSC or PAL format.


This documentary begins....

"For a hundred thousand years humans looked up at the night sky and wondered
about those awesome points of light: What are they? What are they made of? How
did they get there? They didn't have the technology to find out so they guessed
that magical beings had created it all. If you prefer making wild guesses
instead of using observation, measurement and calculation, then here is a
sealed box. Spend the next 10 minutes guessing what's inside and come back
again at the end of this video, because this video doesn't cover what we guess
about the universe, but what we know, and more importantly, how we know it -
How do we know where the stars and galaxies came from and how old they are...."


Description:

This series explains the scientific evidence for our origins, from the Big
Bang to the human migration out of Africa, in a way that most 7th-graders would
understand. It challenges people who believe we were created by a deity 6,000
years ago to confront the evidence instead of ignoring it."

"The 'Made Easy' series of videos can be freely copied and distributed for
educational purposes, but cannot be used for commercial gain in whole or in
part. They cannot be altered, transformed or added to. If you repost these
videos you must attribute them to 'Potholer54 on YouTube.'"

Potholer54's Channel
http://www.youtube.com/user/potholer54

Screens (thumbsnap view) http://tinypic.com/view.php?pic=qoauc5&s=4

Chapter
1 & 2: The History of the Universe Made Easy
3: The origin of Life Made Easy
4: The story of the Earth Made Easy
5: The Age of the World Made Easy
6: Natural Selection Made Easy
7: Theory of Evolution Made Easy
8: Human Evolution Made Easy
9: Human Ancestry Made Easy
10: The scientific Method made Easy
11: Creation 'Science' Made Easy

TAGS: theory evolution science creation creationism intelligent design


General Info (via MediaInfo)
Complete name : Our-Origins-Made-Easy.avi
Format : AVI
File size : 691 MB (725,137,836 bytes)
Duration : 1hr 51mn 31sec
Overall bit rate : 866 Kbps

Video
Format : MPEG-4 Visual
Format profile : Streaming [email protected]
Codec ID : XVID
Duration : 1h 51mn
Bit rate : 734 Kbps
Width : 688 pixels
Height : 496 pixels
Display aspect ratio : 1.387
Frame rate : 25.000 fps
Resolution : 24 bits
Scan type : Progressive
Bits/(Pixel*Frame) : 0.086
Stream size : 586 MiB (85%)
Writing library : XviD 50

Audio
Format : MPEG Audio
Format version : Version 1
Format profile : Layer 3
Codec ID : 55
Codec ID/Hint : MP3
Bit rate mode : Variable
Bit rate (avg) : 124 Kbps
Channel(s) : 2 channels
Sampling rate : 48.0 KHz
Resolution : 16 bits
Stream size : 98.7 MiB (14%)
Alignment : Aligned on interleaves
Interleave, duration : 24 ms (0.60 video frame)
Interleave, preload duration : 68 ms
Writing library : LAME3.98r
Encoding settings : ABR


Though there should be no need, If you download this all I ask in return is to please help seed.

related torrents

Torrent name

health leech seeds Size

our origins made easy

16 3 4.18 GB 0

our origins made easy

12 1 4.17 GB 0
 

comments (0)

Main Menu