Jazz

Benny Carter Wonderland (1976) FLAC

  • Download 5x Faster
  • Download torrent
  • Direct Download
  • Rate this torrent +  |  -
Benny Carter Wonderland (1976) FLAC

Anonymous and Free Direct Download 300GB+


Torrent info

Name:Benny Carter Wonderland (1976) FLAC

Total Size: 243.22 MB

Magnet: Magnet Link

Seeds: 2

Leechers: 3

Stream: Watch Online @ Movie4u

Last Updated: 2010-11-25 07:04:03 (Update Now)

Torrent added: 2008-12-15 04:35:42



VPN For Torrents

Torrent Files List


Scans (Size: 243.22 MB) (Files: 21)

 Scans

  CD.png

10.46 MB

  Inlay 1.png

13.51 MB

  Inlay 2.png

12.65 MB

  Tray.png

11.08 MB

 01 - Stroll.flac

36.94 MB

 02 - Johnny.flac

17.94 MB

 03 - Ata a Vista.flac

30.17 MB

 04 - Misty.flac

25.54 MB

 05 - Wonderland.flac

35.81 MB

 06 - Three Little Words.flac

30.64 MB

 07 - Editation.flac

18.45 MB

 Checksums.md5

1.07 KB

 EAC.log

3.86 KB

 Exact Audio Copy - A Set-up and Ripping Guide.txt

9.44 KB

 Info.txt

0.47 KB

 Multiple FLAC files with gaps (noncompliant).cue

1.13 KB

 Multiple WAV files with gaps (noncompliant).cue

1.12 KB

 Playlist.m3u

0.42 KB

 Range.cue

0.92 KB

 Thumb.jpg

4.93 KB

 Torrent downloaded from Demonoid.com.txt

0.05 KB
 

Announce URL: http://inferno.demonoid.com:3401/announce

Torrent description

BENNY CARTER - WONDERLAND

1. Stroll
2. Johnny
3. Ata a Vista
4. Misty
5. Wonderland
6. Three Little Words
7. Editation

Benny Carter — alto sax
Harry "Sweets" Edison — trumpet
Eddie "Lockjaw" Davis — tenor sax
Ray Bryant — piano
Milt Hinton — bass
Grady Tate — drums

Recorded in New York City; November, 1976.
Produced by Norman Granz
Digitally remastered directly from the original analog tapes by George Horn, Fantasy Studios, Berkeley, CA.
Pablo Records

http://mp3city.com.ua/data/Albums/SmallPhoto/18535.JPEG

Exact Audio Copy V0.99 prebeta 4 from 23. January 2008

EAC extraction logfile from 13. December 2008, 15:29

Benny Carter / Wonderland

Used drive : PLEXTOR CD-R PREMIUM2 Adapter: 1 ID: 1

Read mode : Secure
Utilize accurate stream : Yes
Defeat audio cache : Yes
Make use of C2 pointers : No

Read offset correction : 30
Overread into Lead-In and Lead-Out : Yes
Fill up missing offset samples with silence : Yes
Delete leading and trailing silent blocks : No
Null samples used in CRC calculations : Yes
Used interface : Installed external ASPI interface
Gap handling : Appended to previous track

Used output format : User Defined Encoder
Selected bitrate : 768 kBit/s
Quality : High
Add ID3 tag : No
Command line compressor : C:\My Programs\Exact Audio Copy\FLAC\FLAC.EXE
Additional command line options : -8 -V -T "ARTIST=%a" -T "TITLE=%t" -T "ALBUM=%g" -T "DATE=%y" -T "TRACKNUMBER=%n" -T "GENRE=%m" -T "COMMENT=EAC FLAC -8" %s


TOC of the extracted CD

Track | Start | Length | Start sector | End sector
---------------------------------------------------------
1 | 0:00.00 | 7:21.25 | 0 | 33099
2 | 7:21.25 | 4:41.67 | 33100 | 54241
3 | 12:03.17 | 5:44.20 | 54242 | 80061
4 | 17:47.37 | 5:44.20 | 80062 | 105881
5 | 23:31.57 | 6:42.18 | 105882 | 136049
6 | 30:14.00 | 5:16.15 | 136050 | 159764
7 | 35:30.15 | 3:39.32 | 159765 | 176221


Track 1

Filename D:\Shared\Benny Carter - Wonderland (1976) [FLAC]\01 - Stroll.wav

Pre-gap length 0:00:02.00

Peak level 70.8 %
Track quality 100.0 %
Test CRC 432B7AE6
Copy CRC 432B7AE6
Track not present in AccurateRip database
Copy OK

Track 2

Filename D:\Shared\Benny Carter - Wonderland (1976) [FLAC]\02 - Johnny.wav

Pre-gap length 0:00:02.38

Peak level 28.1 %
Track quality 100.0 %
Test CRC C57B6593
Copy CRC C57B6593
Track not present in AccurateRip database
Copy OK

Track 3

Filename D:\Shared\Benny Carter - Wonderland (1976) [FLAC]\03 - Ata a Vista.wav

Pre-gap length 0:00:02.02

Peak level 70.7 %
Track quality 100.0 %
Test CRC 03E90974
Copy CRC 03E90974
Track not present in AccurateRip database
Copy OK

Track 4

Filename D:\Shared\Benny Carter - Wonderland (1976) [FLAC]\04 - Misty.wav

Pre-gap length 0:00:01.62

Peak level 74.3 %
Track quality 100.0 %
Test CRC 9EF81628
Copy CRC 9EF81628
Track not present in AccurateRip database
Copy OK

Track 5

Filename D:\Shared\Benny Carter - Wonderland (1976) [FLAC]\05 - Wonderland.wav

Pre-gap length 0:00:03.47

Peak level 82.8 %
Track quality 100.0 %
Test CRC 8D7749D4
Copy CRC 8D7749D4
Track not present in AccurateRip database
Copy OK

Track 6

Filename D:\Shared\Benny Carter - Wonderland (1976) [FLAC]\06 - Three Little Words.wav

Pre-gap length 0:00:02.50

Peak level 88.4 %
Track quality 100.0 %
Test CRC D4C81D0F
Copy CRC D4C81D0F
Track not present in AccurateRip database
Copy OK

Track 7

Filename D:\Shared\Benny Carter - Wonderland (1976) [FLAC]\07 - Editation.wav

Pre-gap length 0:00:01.70

Peak level 67.6 %
Track quality 100.0 %
Test CRC F48ED1FA
Copy CRC F48ED1FA
Track not present in AccurateRip database
Copy OK


None of the tracks are present in the AccurateRip database

No errors occurred

End of status report

related torrents

Torrent name

health leech seeds Size
 


comments (0)

Main Menu