Action

Death Race 2008 DVDRIP XviD ZEKTORM

  • Download 5x Faster
  • Download torrent
  • Direct Download
  • Rate this torrent +  |  -
Death Race 2008 DVDRIP XviD ZEKTORM

Anonymous and Direct Download 300GB+ free


Torrent info

Name:Death Race 2008 DVDRIP XviD ZEKTORM

Total Size: 716.24 MB

Magnet: Magnet Link

Seeds: 0

Leechers: 0

Stream: Watch Online @ Movie4u

Last Updated: 2011-02-28 16:30:01 (Update Now)

Torrent added: 2008-12-14 20:33:30




Torrent Files List


Death.Race.2008.DVDRIP.XviD-ZEKTORM.avi (Size: 716.24 MB) (Files: 4)

 Death.Race.2008.DVDRIP.XviD-ZEKTORM.avi

700.76 MB

 READ.hlp

2.10 KB

 Subs

  Death.Race.2008.DVDRIP.XviD-ZEKTORM.idx

278.50 KB

  Death.Race.2008.DVDRIP.XviD-ZEKTORM.sub

15.21 MB
 

Announce URL: http://tracker.torrentbox.com:2710/announce

Torrent description

Title : Death Race
Year : 2008
Genre : Action | Sci-Fi | Thriller
iMDB Rate : User Rating: 6.7/10 14,946 votes
iMDB URL : http://www.imdb.com/title/tt0452608/

Complete name : Death.Race.2008.DVDRIP.XviD-ZEKTORM.avi
Format : AVI
File size : 701 MiB
Duration : 1h 50mn (Unrated Edition)
Overall bit rate : 884 Kbps
Subtitles : English, Spanish, French (Format: VobSub)
Source : DVD NTSC

Video
Format : MPEG-4 Visual
Format profile : Streaming [email protected]
Codec ID : DX50
Codec ID/Hint : DivX 5
Duration : 1h 50mn
Bit rate : 765 Kbps
Width : 720 pixels
Height : 304 pixels
Display aspect ratio : 2.35
Frame rate : 23.976 fps
Resolution : 24 bits
Colorimetry : 4:2:0
Scan type : Progressive
Bits/(Pixel*Frame) : 0.146
Stream size : 606 MiB (87%)
Writing library : XviD 1.2.0.dev47

Audio
Format : MPEG Audio
Format version : Version 1
Format profile : Layer 3
Codec ID : 55
Codec ID/Hint : MP3
Duration : 1h 50mn
Bit rate mode : Constant
Bit rate : 112 Kbps
Minimum bit rate : 112 Kbps
Channel(s) : 2 channels
Sampling rate : 44.1 KHz
Resolution : 16 bits
Stream size : 88.7 MiB (13%)
Writing library : LAME3.97
Encoding settings : CBR

related torrents

Torrent name

health leech seeds Size
 


comments (0)

Main Menu