Drama

Buffalo 66 avi

  • Download 5x Faster
  • Download torrent
  • Direct Download
  • Rate this torrent +  |  -
Buffalo 66 avi

Free and Direct Download with Usenet 300GB+ free


Torrent info

Name:Buffalo 66 avi

Total Size: 693.53 MB

Magnet: Magnet Link

Seeds: 6

Leechers: 1

Stream: Watch Online @ Movie4u

Last Updated: 0000-00-00 00:00:00 (Update Now)

Torrent added: 2008-12-14 06:47:03




Torrent Files List


Buffalo 66.avi (Size: 693.53 MB) (Files: 1)

 Buffalo 66.avi

693.53 MB
 

Announce URL: http://tracker.tntvillage.scambioetico.org:2710/announce

Torrent description

Buffalo \'66, [DivX - Ita Mp3][www.tntvillage.scambioetico.org]

Scheda del film

Titolo:Buffalo \'66
Titolo originale:Buffalo \'66
Nazionalità:USA
Anno:1997
Genere:Drammatico
Regia:Vincent Gallo
Produzione:Chris Hanley per Cinepix film properties inc. (CFP), Lions Gate
Distribuzione:BMG Video
Data di uscita:1997

Cast


Vincent Gallo, Christina Ricci, Anjelica Huston, Ben Gazzara, Mickey Rourke, Rosanna Arquette, Jan-Michael Vincent, John Sansone, Kevin Corrigan,

General

Complete name : Buffalo 66.avi
Format : AVI
Format/Info : Audio Video Interleave
File size : 694 MiB
Duration : 1h 45mn
Overall bit rate : 921 Kbps

Video

Format : MPEG-4 Visual
Format settings, BVOP : Yes
Format settings, QPel : No
Format settings, GMC : No warppoints
Format settings, Matrix : Default
Muxing mode : Packed bitstream
Codec ID : DX50
Codec ID/Hint : DivX 5
Duration : 1h 45mn
Bit rate : 816 Kbps
Width : 512 pixels
Height : 288 pixels
Display aspect ratio : 16/9
Frame rate : 25.000 fps
Resolution : 24 bits
Colorimetry : 4:2:0
Scan type : Progressive
Bits/(Pixel*Frame) : 0.221
Stream size : 614 MiB (89%)
Writing library : DivX 5.0.5 Beta(Tahanea) (UTC 2003-01)

Audio

Format : MPEG Audio
Format version : Version 1
Format profile : Layer 3
Codec ID : 55
Codec ID/Hint : MP3
Duration : 1h 45mn
Bit rate mode : Constant
Bit rate : 96.0 Kbps
Channel(s) : 2 channels
Sampling rate : 44.1 KHz
Resolution : 16 bits
Stream size : 72.3 MiB (10%)
Alignment : Split accross interleaves
Interleave, duration : 40 ms (1.00 video frame)
Interleave, preload duration : 500 ms

related torrents

Torrent name

health leech seeds Size

Buffalo '66 avi

0 0 697.31 MB 0

Buffalo 66 [2000] avi

0 0 823.98 MB 0

Buffalo 66 dvdrip avi

0 0 697.00 MB 0
 

comments (0)

Main Menu