Comedy

Ghost Town 2008 DVDRIP XviD ZEKTORM

  • Download 5x Faster
  • Download torrent
  • Direct Download
  • Rate this torrent +  |  -
Ghost Town 2008 DVDRIP XviD ZEKTORM

Anonymous and Free Direct Download 300GB+


Torrent info

Name:Ghost Town 2008 DVDRIP XviD ZEKTORM

Total Size: 719.29 MB

Magnet: Magnet Link

Seeds: 2

Leechers: 3

Stream: Watch Online @ Movie4u

Last Updated: 2010-11-30 02:56:57 (Update Now)

Torrent added: 2008-12-13 20:33:49



VPN For Torrents

Torrent Files List


Ghost.Town.2008.DVDRIP.XviD-ZEKTORM.avi (Size: 719.29 MB) (Files: 4)

 Ghost.Town.2008.DVDRIP.XviD-ZEKTORM.avi

700.63 MB

 READ.hlp

2.13 KB

 Subs

  Ghost.Town.2008.DVDRIP.XviD-ZEKTORM.idx

212.83 KB

  Ghost.Town.2008.DVDRIP.XviD-ZEKTORM.sub

18.44 MB
 

Announce URL: http://eztv.tracker.thepiratebay.org:80/announce

Torrent description

Title : Ghost Town
Year : 2008
Genre : Comedy | Fantasy | Romance
iMDB Rate : User Rating: 7.6/10 3,013 votes
iMDB URL : http://www.imdb.com/title/tt0995039/
Awards : 1 nomination

Complete name : Ghost.Town.2008.DVDRIP.XviD-ZEKTORM.avi
Format : AVI
File size : 701 MiB
Duration : 1h 42mn
Overall bit rate : 958 Kbps
Subtitles : English, Spanish, French (Format: VobSub)
Source : DVD NTSC

Video
Format : MPEG-4 Visual
Format profile : Streaming [email protected]
Codec ID : DX50
Codec ID/Hint : DivX 5
Duration : 1h 42mn
Bit rate : 839 Kbps
Width : 720 pixels
Height : 416 pixels
Display aspect ratio : 16/9
Frame rate : 23.976 fps
Resolution : 24 bits
Colorimetry : 4:2:0
Scan type : Progressive
Bits/(Pixel*Frame) : 0.117
Stream size : 614 MiB (88%)
Writing library : XviD 1.2.0.dev47

Audio
Format : MPEG Audio
Format version : Version 1
Format profile : Layer 3
Codec ID : 55
Codec ID/Hint : MP3
Duration : 1h 42mn
Bit rate mode : Constant
Bit rate : 112 Kbps
Minimum bit rate : 112 Kbps
Channel(s) : 2 channels
Sampling rate : 44.1 KHz
Resolution : 16 bits
Stream size : 81.9 MiB (12%)
Writing library : LAME3.97
Encoding settings : CBR

related torrents

Torrent name

health leech seeds Size
 


comments (0)

Main Menu