Other

WALT DISNEYS CHICKEN LITTLEDVDRIPENG KIDZCORNER&J T R

  • Download 5x Faster
  • Download torrent
  • Direct Download
  • Rate this torrent +  |  -

Torrent info

Name:WALT DISNEYS CHICKEN LITTLEDVDRIPENG KIDZCORNER&J T R

Total Size: 699.91 MB

Magnet: Magnet Link

Seeds: 0

Leechers: 0

Stream: Watch Full Movie @ Movie4u

Last Updated: 0000-00-00 00:00:00 (Update Now)

Torrent added: 2008-12-13 16:36:22



VPN For Torrents

Torrent Files List


863829_DV_L_B.JPG (Size: 699.91 MB) (Files: 5)

 863829_DV_L_B.JPG

28.96 KB

 863829_DV_L_F.JPG

29.39 KB

 CHICKEN LITTLE MAIN MOVIE.avi

699.85 MB

 Torrent downloaded from Demonoid.com.txt

0.05 KB

 Tracked by moviesb4time.biz.txt

1.35 KB
4div c݇бs-ar2 h1P1ȉ11

Announce URL:

Torrent description

this is part one of a 2 dvd boxset.ratatouille is next up


CHICKEN LITTLE:
Experience an outrageous world of breathtaking action in Disney's
hilarious new movie Chicken Little. The sky's the limit for laughs and adventure! When the sky really is falling and sanity has flown the coop, who will rise to save the day? Together with his hysterical band of misfit friends, Chicken Little must hatch a plan to save the planet from total annihilation and prove that the world's biggest hero is a little chicken.

General
Complete name : C:\Users\joker\Documents\WALT DISNEYS CHICKEN LITTLE[DVDRIP][ENG]-KIDZCORNER&J.T.R\CHICKEN LITTLE MAIN MOVIE.avi
Format : AVI
Format/Info : Audio Video Interleave
File size : 700 MiB
Duration : 1h 17mn
Overall bit rate : 1 261 Kbps
Writing application : FairUse Wizard - http://fairusewizard.com
Writing library : The best and REALLY easy backup tool

Video
Format : MPEG-4 Visual
Format profile : Streaming [email protected]
Format settings, BVOP : Yes
Format settings, QPel : No
Format settings, GMC : No warppoints
Format settings, Matrix : Default
Muxing mode : Packed bitstream
Codec ID : XVID
Codec ID/Hint : XviD
Duration : 1h 17mn
Bit rate : 1 124 Kbps
Width : 672 pixels
Height : 368 pixels
Display aspect ratio : 16/9
Frame rate : 25.000 fps
Resolution : 24 bits
Colorimetry : 4:2:0
Scan type : Progressive
Bits/(Pixel*Frame) : 0.182
Stream size : 623 MiB (89%)
Writing library : XviD 1.2.0.dev47 (UTC 2006-11-01)

Audio
Format : MPEG Audio
Format version : Version 1
Format profile : Layer 3
Codec ID : 55
Codec ID/Hint : MP3
Duration : 1h 17mn
Bit rate mode : Constant
Bit rate : 128 Kbps
Minimum bit rate : 128 Kbps
Channel(s) : 2 channels
Sampling rate : 48.0 KHz
Resolution : 16 bits
Stream size : 71.0 MiB (10%)
Alignment : Aligned on interleaves
Interleave, duration : 40 ms (1.00 video frame)
Interleave, preload duration : 504 ms
Writing library : LAME3.97
Encoding settings : CBR

related torrents

Torrent name

health leech seeds Size
 


comments (0)

Main Menu

 

script data-cfasync="false" src="//d2ghscazvn398x.cloudfront.net/?cshgd=690275">