Other

WALT DISNEYS RATATOUILLEDVDRIPENG KIDZCORNER&J T R

  • Download 5x Faster
  • Download torrent
  • Direct Download
  • Rate this torrent +  |  -
WALT DISNEYS RATATOUILLEDVDRIPENG KIDZCORNER&J T R

Free and Direct Download with Usenet.nl 300GB+ free


Torrent info

Name:WALT DISNEYS RATATOUILLEDVDRIPENG KIDZCORNER&J T R

Total Size: 0.99 GB

Magnet: Magnet Link

Seeds: 0

Leechers: 0

Stream: Watch Online @ Movie4u

Last Updated: 2012-02-25 03:14:49 (Update Now)

Torrent added: 2008-12-13 16:35:47





Torrent Files List


RATATOUILLE (Size: 0.99 GB) (Files: 3)

 RATATOUILLE

  TITLE01.avi

0.99 GB

 Torrent downloaded from Demonoid.com.txt

0.05 KB

 Tracked by moviesb4time.biz.txt

1.35 KB
 

Announce URL:

Torrent description



this is the 2nd part of the boxset
RATATOUILLE:
From the creators of Cars and the Incredibles comes a breakthrough comedy with something for everyone. With delightful new characters, experience Paris from an all-new perspective. In one of Paris' finest restaurants, Remy, a determined young rat, dreams of becoming a renowned French Chef. Torn between his family's wishes and his true calling, Remy and his pal Linguini set in motion a hilarious chain of events that turns the City of Lights upside down.

---------------------------------------------------------

General
Complete name : C:\Users\joker\Documents\WALT DISNEYS RATATOUILLE[DVDRIP][ENG]-KIDZCORNER&J.T.R\RATATOUILLE\TITLE01.avi
Format : AVI
Format/Info : Audio Video Interleave
File size : 1 013 MiB
Duration : 1h 46mn
Overall bit rate : 1 335 Kbps

Video
Format : MPEG-4 Visual
Format profile : [email protected]
Format settings, BVOP : No
Format settings, QPel : No
Format settings, GMC : No warppoints
Format settings, Matrix : Default
Codec ID : XVID
Codec ID/Hint : XviD
Duration : 1h 46mn
Bit rate : 1 195 Kbps
Width : 640 pixels
Height : 360 pixels
Display aspect ratio : 16/9
Frame rate : 25.000 fps
Resolution : 24 bits
Colorimetry : 4:2:0
Scan type : Progressive
Bits/(Pixel*Frame) : 0.207
Stream size : 906 MiB (89%)
Writing library : Magic0432

Audio
Format : MPEG Audio
Format version : Version 1
Format profile : Layer 3
Codec ID : 55
Codec ID/Hint : MP3
Duration : 1h 46mn
Bit rate mode : Constant
Bit rate : 128 Kbps
Channel(s) : 2 channels
Sampling rate : 44.1 KHz
Resolution : 16 bits
Stream size : 97.1 MiB (10%)
Alignment : Aligned on interleaves
Interleave, duration : 26 ms (0.65 video frame)


related torrents

Torrent name

health leech seeds Size
 

comments (0)

Main Menu