TV - Other

Unsere kleine Farm Staffel 10 von 10 german divx

  • Download 5x Faster
  • Download torrent
  • Direct Download
  • Rate this torrent +  |  -
Unsere kleine Farm Staffel 10 von 10 german divx

Anonymous and Free Direct Download 300GB+


Torrent info

Name:Unsere kleine Farm Staffel 10 von 10 german divx

Total Size: 2.62 GB

Magnet: Magnet Link

Seeds: 3

Leechers: 1

Stream: Watch Online @ Movie4u

Last Updated: 2011-01-06 22:05:49 (Update Now)

Torrent added: 2008-12-13 11:40:30



VPN For Torrents

Torrent Files List


ukf_205_und_206_alberts_wille.avi (Size: 2.62 GB) (Files: 5)

 ukf_205_und_206_alberts_wille.avi

799.36 MB

 ukf_207 Wo ist Rose Teil_1.avi

449.29 MB

 ukf_208 Wo ist Rose Teil_2.avi

449.56 MB

 ukf_209_das_ende_von_walnut_grove_teil1.avi

494.57 MB

 ukf_210_das_ende_von_walnut_grove_teil2.avi

494.85 MB
 

Announce URL: http://wreckingcrew.mobi/announce.php

Torrent description



Unsere kleine Farm Staffel10


Video
Format : MPEG-4 Visual
Format settings, BVOP : Ja
Format settings, QPel : Nein
Format settings, GMC : No warpoints
Format settings, Matrix : Default
Codec ID : DX50
Codec ID/Hint : DivX 5
Bitrate : 906 Kbps
Breite : 704 Pixel
Höhe : 528 Pixel
Bildseitenverhältnis : 4/3
Bildwiederholungsrate : 25.000 FPS
Auflösung : 8 bits
Colorimetry : 4:2:0
Scan type : Progressive
Bits/(Pixel*Frame) : 0.097
Stream size : 300 MiB
Titel : Video
verwendete Encoder-Bibliothek : DivX 5.2.0 (DrDivX 105) (UTC 2004-07-17)

Audio
Format : MPEG Audio
Format version : Version 1
Format profile : Layer 3
Codec ID : 55
Codec ID/Hint : MP3
Bitraten-Modus : Variable
Bitrate : 256 Kbps
Kanäle : 2 Kanäle
Samplingrate : 48.0 KHz
Auflösung : 16 bits
Stream size : 85.8 MiB
Titel : Audio

10 - Staffel:

Unsere kleine Farm - S10E01 - 205 - Alberts Wille - 1v2.avi
Unsere kleine Farm - S10E02 - 206 - Alberts Wille - 2v2.avi
Unsere kleine Farm - S10E03 - 207 - Wo ist Rose - 1v2.avi
Unsere kleine Farm - S10E04 - 208 - Wo ist Rose - 2v2.avi
Unsere kleine Farm - S10E05 - 209 - Das Ende von Walnut Grove - 1v2.avi
Unsere kleine Farm - S10E06 - 210 - Das Ende von Walnut Grove - 2v2.avi

related torrents

Torrent name

health leech seeds Size
 


comments (0)

Main Menu