TV - Other

Unsere kleine Farm Staffel 09 von 10 german divx

  • Download 5x Faster
  • Download torrent
  • Direct Download
  • Rate this torrent +  |  -
Unsere kleine Farm Staffel 09 von 10 german divx

Anonymous and Free Direct Download 300GB+


Torrent info

Name:Unsere kleine Farm Staffel 09 von 10 german divx

Total Size: 8.39 GB

Magnet: Magnet Link

Seeds: 2

Leechers: 2

Stream: Watch Online @ Movie4u

Last Updated: 2010-12-28 15:25:26 (Update Now)

Torrent added: 2008-12-13 11:40:30



VPN For Torrents

Torrent Files List


ukf_183_veraenderte_zeiten_teil1.avi (Size: 8.39 GB) (Files: 22)

 ukf_183_veraenderte_zeiten_teil1.avi

390.33 MB

 ukf_184_veraenderte_zeiten_teil2.avi

390.20 MB

 ukf_185_buergermeisterwahl.avi

390.54 MB

 ukf_186_ein_mann_fuehlt_sich_schuldig.avi

389.76 MB

 ukf_187_ein_kleiner_grosser_mann.avi

390.05 MB

 ukf_188_der_wilde_junge_teil1.avi

390.19 MB

 ukf_189_der_wilde_junge_teil2.avi

390.34 MB

 ukf_190_nelly_und_nancy.avi

390.35 MB

 ukf_191_die_eisenbahn.avi

390.24 MB

 ukf_192_edwards_spaete_liebe.avi

390.52 MB

 ukf_193_eine_ueberraschung_fuer_reverend_alden.avi

390.35 MB

 ukf_194_doktor_marvins_letzter_patient.avi

390.51 MB

 ukf_195_der_patriarch.avi

390.43 MB

 ukf_196_raeuber_sein_ist_schwer.avi

390.41 MB

 ukf_197_der_autoren_wettbewerb.avi

390.29 MB

 ukf_198_gift_fuer_den_koerper_teil1.avi

390.51 MB

 ukf_199_gift_fuer_den_koerper_teil2.avi

390.50 MB

 ukf_200_kind_ohne_namen.avi

390.29 MB

 ukf_201_der_letzte_sommer.avi

390.50 MB

 ukf_202_ein_ganz_besonderes_maedchen.avi

389.92 MB

 ukf_203_universitaet_oder_hochzeit.avi

390.27 MB

 ukf_204_neuankoemmlinge.avi

390.33 MB
 

Announce URL: http://wreckingcrew.mobi/announce.php

Torrent description



Unsere kleine Farm Staffel9

Video
Format : MPEG-4 Visual
Format settings, BVOP : Ja
Format settings, QPel : Nein
Format settings, GMC : No warpoints
Format settings, Matrix : Default
Codec ID : DX50
Codec ID/Hint : DivX 5
Bitrate : 906 Kbps
Breite : 704 Pixel
Höhe : 528 Pixel
Bildseitenverhältnis : 4/3
Bildwiederholungsrate : 25.000 FPS
Auflösung : 8 bits
Colorimetry : 4:2:0
Scan type : Progressive
Bits/(Pixel*Frame) : 0.097
Stream size : 300 MiB
Titel : Video
verwendete Encoder-Bibliothek : DivX 5.2.0 (DrDivX 105) (UTC 2004-07-17)

Audio
Format : MPEG Audio
Format version : Version 1
Format profile : Layer 3
Codec ID : 55
Codec ID/Hint : MP3
Bitraten-Modus : Variable
Bitrate : 256 Kbps
Kanäle : 2 Kanäle
Samplingrate : 48.0 KHz
Auflösung : 16 bits
Stream size : 85.8 MiB
Titel : Audio

9 - Staffel:

Unsere kleine Farm - S09E01 - 183 - Veränderte Zeiten - 1v2.avi
Unsere kleine Farm - S09E02 - 184 - Veränderte Zeiten - 2v2.avi
Unsere kleine Farm - S09E03 - 185 - Bürgermeisterwahl.avi
Unsere kleine Farm - S09E04 - 186 - Ein Mann fühlt sich schuldig.avi
Unsere kleine Farm - S09E05 - 187 - Ein kleiner, großer Mann.avi
Unsere kleine Farm - S09E06 - 188 - Der wilde Junge - 1v2.avi
Unsere kleine Farm - S09E07 - 189 - Der wilde Junge - 2v2.avi
Unsere kleine Farm - S09E08 - 190 - Nellie und Nancy.avi
Unsere kleine Farm - S09E09 - 191 - Die Eisenbahn.avi
Unsere kleine Farm - S09E10 - 192 - Edwards späte Liebe.avi
Unsere kleine Farm - S09E11 - 193 - Eine berraschung für Reverend Alden.avi
Unsere kleine Farm - S09E12 - 194 - Doktor Marvins letzter Patient.avi
Unsere kleine Farm - S09E13 - 195 - Der Patriarch.avi
Unsere kleine Farm - S09E14 - 196 - Räuber sein ist schwer.avi
Unsere kleine Farm - S09E15 - 197 - Der Autoren-Wettbewerb.avi
Unsere kleine Farm - S09E16 - 198 - Gift für den Körper - 1v2.avi
Unsere kleine Farm - S09E17 - 199 - Gift für den Körper - 2v2.avi
Unsere kleine Farm - S09E18 - 200 - Kind ohne Namen.avi
Unsere kleine Farm - S09E19 - 201 - Der letzte Sommer.avi
Unsere kleine Farm - S09E20 - 202 - Ein ganz besonderes Mädchen.avi
Unsere kleine Farm - S09E21 - 203 - Universität oder Hochzeit?.avi
Unsere kleine Farm - S09E22 - 204 - Neuankömmlinge.avi

related torrents

Torrent name

health leech seeds Size
 


comments (0)

Main Menu