TV - Other

Unsere kleine Farm Staffel 08 von 10 german divx

  • Download 5x Faster
  • Download torrent
  • Direct Download
  • Rate this torrent +  |  -
Unsere kleine Farm Staffel 08 von 10 german divx

Anonymous and Free Direct Download 300GB+


Torrent info

Name:Unsere kleine Farm Staffel 08 von 10 german divx

Total Size: 8.78 GB

Magnet: Magnet Link

Seeds: 2

Leechers: 2

Stream: Watch Online @ Movie4u

Last Updated: 2010-11-30 02:55:46 (Update Now)

Torrent added: 2008-12-13 11:40:26



VPN For Torrents

Torrent Files List


ukf_161_waisenkinder_teil2.avi (Size: 8.40 GB) (Files: 21)

 ukf_161_waisenkinder_teil2.avi

390.26 MB

 ukf_162_kein_platz_fuer_james.avi

390.28 MB

 ukf_163_die_neue_nellie_teil1.avi

390.50 MB

 ukf_164_die_neue_nellie_teil2.avi

390.31 MB

 ukf_165_der_schwarze_gelehrte.avi

389.61 MB

 ukf_167_der_grosse_gambini.avi

390.40 MB

 ukf_168_die_moechtegern_ganoven.avi

390.32 MB

 ukf_169_chicago.avi

390.34 MB

 ukf_170_aus_liebe_zu_nancy.avi

390.43 MB

 ukf_171_die restaurantkette.avi

390.40 MB

 ukf_172_eine_unvergessliche_weihnacht.avi

390.35 MB

 ukf_173_ein_echter_freund.avi

390.32 MB

 ukf_174_lauras_obstgarten.avi

390.32 MB

 ukf_175_ein_neuer_beruf.avi

390.53 MB

 ukf_176_der_reiche_onkel.avi

390.51 MB

 ukf_177_ein_zweiter_versuch.avi

390.29 MB

 ukf_178_vom_schicksal_gebeutelt_teil1_und_2.avi

798.01 MB

 ukf_179_der_patenonkel.avi

390.66 MB

 ukf_180_ein_hilferuf_aus_der_ferne.avi

390.47 MB

 ukf_181_warten_auf_ein_wunder_teil1.avi

390.43 MB

 ukf_182_warten_auf_ein_wunder_teil2.avi

390.45 MB
 

Announce URL: http://wreckingcrew.mobi/announce.php

Torrent description



Unsere kleine Farm Staffel8

Video
Format : MPEG-4 Visual
Format settings, BVOP : Ja
Format settings, QPel : Nein
Format settings, GMC : No warpoints
Format settings, Matrix : Default
Codec ID : DX50
Codec ID/Hint : DivX 5
Bitrate : 906 Kbps
Breite : 704 Pixel
Höhe : 528 Pixel
Bildseitenverhältnis : 4/3
Bildwiederholungsrate : 25.000 FPS
Auflösung : 8 bits
Colorimetry : 4:2:0
Scan type : Progressive
Bits/(Pixel*Frame) : 0.097
Stream size : 300 MiB
Titel : Video
verwendete Encoder-Bibliothek : DivX 5.2.0 (DrDivX 105) (UTC 2004-07-17)

Audio
Format : MPEG Audio
Format version : Version 1
Format profile : Layer 3
Codec ID : 55
Codec ID/Hint : MP3
Bitraten-Modus : Variable
Bitrate : 256 Kbps
Kanäle : 2 Kanäle
Samplingrate : 48.0 KHz
Auflösung : 16 bits
Stream size : 85.8 MiB
Titel : Audio

8 - Staffel:

Unsere kleine Farm - S08E01 - 161 - Die neue Nellie - 1v2.avi
Unsere kleine Farm - S08E02 - 162 - Die neue Nellie - 2v2.avi
Unsere kleine Farm - S08E03 - 163 - Kein Platz für James?.avi
Unsere kleine Farm - S08E04 - 164 - Der schwarze Gelehrte.avi
Unsere kleine Farm - S08E05 - 165 - Die Bildungsreise.avi
Unsere kleine Farm - S08E06 - 166 - Der große Gambini.avi
Unsere kleine Farm - S08E07 - 167 - Die Möchtegern-Ganoven.avi
Unsere kleine Farm - S08E08 - 168 - Chicago.avi
Unsere kleine Farm - S08E09 - 169 - Aus Liebe zu Nancy.avi
Unsere kleine Farm - S08E10 - 170 - Die Restaurantkette.avi
Unsere kleine Farm - S08E11 - 171 - Eine unvergessliche Weihnacht.avi
Unsere kleine Farm - S08E12 - 172 - Ein echter Freund.avi
Unsere kleine Farm - S08E13 - 173 - Lauras Obstgarten.avi
Unsere kleine Farm - S08E14 - 174 - Ein neuer Beruf.avi
Unsere kleine Farm - S08E15 - 175 - Der reiche Onkel.avi
Unsere kleine Farm - S08E16 - 176 - Ein zweiter Versuch.avi
Unsere kleine Farm - S08E17 - 177 - Vom Schicksal gebeutelt - 1v2.avi
Unsere kleine Farm - S08E18 - 178 - Vom Schicksal gebeutelt - 2v2.avi
Unsere kleine Farm - S08E19 - 179 - Der Patenonkel.avi
Unsere kleine Farm - S08E20 - 180 - Ein Hilferuf aus der Ferne.avi
Unsere kleine Farm - S08E21 - 181 - Warten auf ein Wunder - 1v2.avi
Unsere kleine Farm - S08E22 - 182 - Warten auf ein Wunder - 2v2.avi

related torrents

Torrent name

health leech seeds Size
 


comments (0)

Main Menu