TV - Other

Unsere kleine Farm Staffel 07 von 10 german divx

  • Download 5x Faster
  • Download torrent
  • Direct Download
  • Rate this torrent +  |  -
Unsere kleine Farm Staffel 07 von 10 german divx

Free and Direct Download with Usenet.nl 300GB+ free


Torrent info

Name:Unsere kleine Farm Staffel 07 von 10 german divx

Total Size: 8.38 GB

Magnet: Magnet Link

Seeds: 4

Leechers: 1

Stream: Watch Online @ Movie4u

Last Updated: 2011-01-04 22:50:03 (Update Now)

Torrent added: 2008-12-13 11:40:25





Torrent Files List


ukf_139_er_liebt_mich_er_liebt_mich_nicht_teil2.avi (Size: 8.38 GB) (Files: 22)

 ukf_139_er_liebt_mich_er_liebt_mich_nicht_teil2.avi

390.36 MB

 ukf_140_laura_und_almanzo_teil1.avi

390.09 MB

 ukf_141_laura_und_almanzo_teil2.avi

390.23 MB

 ukf_142_hilfssheriff_wider_willen.avi

390.07 MB

 ukf_143_der_football_trainer.avi

390.15 MB

 ukf_144_der_stumme_schrei.avi

390.53 MB

 ukf_145_die_blinde_malerin.avi

390.47 MB

 ukf_146_lauras_eifersucht.avi

390.37 MB

 ukf_147_brieffreunde.avi

390.35 MB

 ukf_148_der_zweikampf.avi

390.45 MB

 ukf_149_das_licht_des_himmels_teil1.avi

389.90 MB

 ukf_150_das_licht_des_himmels_teil2.avi

390.47 MB

 ukf_151_aufstand_der_frauen.avi

390.45 MB

 ukf_152_nellies_baby.avi

390.40 MB

 ukf_153_die_neffen.avi

390.36 MB

 ukf_154_ein_lied_fuer_hester_sue.avi

390.29 MB

 ukf_155_auf_wiedersehen_mrs_wilder.avi

390.53 MB

 ukf_156_sylvia_teil1.avi

389.57 MB

 ukf_157_sylvia_teil2.avi

390.08 MB

 ukf_158_adam_in_not.avi

390.22 MB

 ukf_159_die_zweite_hochzeit.avi

390.45 MB

 ukf_160_waisenkinder_teil1.avi

390.16 MB
 

Announce URL: http://wreckingcrew.mobi/announce.php

Torrent description


Unsere kleine Farm Staffel7

Video
Format : MPEG-4 Visual
Format settings, BVOP : Ja
Format settings, QPel : Nein
Format settings, GMC : No warpoints
Format settings, Matrix : Default
Codec ID : DX50
Codec ID/Hint : DivX 5
Bitrate : 906 Kbps
Breite : 704 Pixel
Höhe : 528 Pixel
Bildseitenverhältnis : 4/3
Bildwiederholungsrate : 25.000 FPS
Auflösung : 8 bits
Colorimetry : 4:2:0
Scan type : Progressive
Bits/(Pixel*Frame) : 0.097
Stream size : 300 MiB
Titel : Video
verwendete Encoder-Bibliothek : DivX 5.2.0 (DrDivX 105) (UTC 2004-07-17)

Audio
Format : MPEG Audio
Format version : Version 1
Format profile : Layer 3
Codec ID : 55
Codec ID/Hint : MP3
Bitraten-Modus : Variable
Bitrate : 256 Kbps
Kanäle : 2 Kanäle
Samplingrate : 48.0 KHz
Auflösung : 16 bits
Stream size : 85.8 MiB
Titel : Audio


7 - Staffel:

Unsere kleine Farm - S07E01 - 139 - Laura und Almanzo - 1v2.avi
Unsere kleine Farm - S07E02 - 140 - Laura und Almanzo - 2v2.avi
Unsere kleine Farm - S07E03 - 141 - Hilfssheriff wider Willen.avi
Unsere kleine Farm - S07E04 - 142 - Der Football-Trainer.avi
Unsere kleine Farm - S07E05 - 143 - Der stumme Schrei.avi
Unsere kleine Farm - S07E06 - 144 - Die blinde Malerin.avi
Unsere kleine Farm - S07E07 - 145 - Lauras Eifersucht.avi
Unsere kleine Farm - S07E08 - 146 - Brieffreunde.avi
Unsere kleine Farm - S07E09 - 147 - Der Zweikampf.avi
Unsere kleine Farm - S07E10 - 148 - Das Licht des Himmels - 1v2.avi
Unsere kleine Farm - S07E11 - 149 - Das Licht des Himmels - 2v2.avi
Unsere kleine Farm - S07E12 - 150 - Aufstand der Frauen.avi
Unsere kleine Farm - S07E13 - 151 - Nellies Baby.avi
Unsere kleine Farm - S07E14 - 152 - Die Neffen.avi
Unsere kleine Farm - S07E15 - 153 - Ein Lied für Hester Sue.avi
Unsere kleine Farm - S07E16 - 154 - Auf Wiedersehen, Mrs Wilder.avi
Unsere kleine Farm - S07E17 - 155 - Sylvia - 1v2.avi
Unsere kleine Farm - S07E18 - 156 - Sylvia - 2v2.avi
Unsere kleine Farm - S07E19 - 157 - Adam in Not.avi
Unsere kleine Farm - S07E20 - 158 - Die zweite Hochzeit.avi
Unsere kleine Farm - S07E21 - 159 - Die Waisenkinder - 1v2.avi
Unsere kleine Farm - S07E22 - 160 - Die Waisenkinder - 2v2.avi

related torrents

Torrent name

health leech seeds Size
 

comments (0)

Main Menu