Windows

Pro Evolution Soccer 2009 Official Guide and Coaching h33tmigel

  • Download 5x Faster
  • Download torrent
  • Direct Download
  • Rate this torrent +  |  -
Pro Evolution Soccer 2009 Official Guide and Coaching h33tmigel

Anonymous and Direct Download 300GB+ free


Torrent info

Name:Pro Evolution Soccer 2009 Official Guide and Coaching h33tmigel

Total Size: 1.02 GB

Magnet: Magnet Link

Seeds: 1

Leechers: 1

Stream: Watch Online @ Movie4u

Last Updated: 2011-01-12 04:13:06 (Update Now)

Torrent added: 2008-12-13 11:26:46




Torrent Files List


1. MUST READ (Size: 1.02 GB) (Files: 22)

 1. MUST READ

  ALL AIOs Created By Me.txt

2.89 KB

  hkSFV 2.0.1 (prog for check SFV + MD5).rar

213.15 KB

  HOW TO EXTRACT ALL AIO PACKS (IF NEED PASS).txt

5.37 KB

  My Blog.url

0.20 KB

  My UpLoad Torrents In The BEST site ww.h33t.com.url

0.18 KB

  Read me for SFV + MD5.txt

1.28 KB

  THANK YOU 4 DownLoad my files.exe

711.73 KB

  © migel.exe

3.38 MB

 PES 2009 Official Guide + Coaching

  Coaching Manual.avi

700.03 MB

  Introduction.avi

41.05 MB

  Tactics & Strategies.avi

299.97 MB

 SC

  1.JPG

71.00 KB

  av.jpg

53.07 KB

  Coaching Manual.jpg

107.51 KB

  Introduction.jpg

99.08 KB

  Tactics & Strategies.jpg

126.47 KB

 1655 torrents upload by my.url

0.29 KB

 info.txt

6.86 KB

 PLEASE README.txt

4.24 KB

 Pro Evolution Soccer 2009 - Official Guide and Coaching [h33t][migel].md5

1.79 KB

 Pro Evolution Soccer 2009 - Official Guide and Coaching [h33t][migel].sfv

1.49 KB

 tracked_by_h33t_com.txt

1.56 KB
 

Announce URL: http://www.h33t.com:3310/announce

Torrent description


Screen Captures & Infos:
http://www.h33t.com/details.php?id=9a6747c043ae64675ddb38d08ee7d50e0df9f77a


Pro Evolution Soccer 2009 - Official Guide and Coaching [h33t][migel]

Pro Evolution Soccer 2009   Official Guide and Coaching h33tmigel preview 0
Pro Evolution Soccer 2009   Official Guide and Coaching h33tmigel preview 1
Pro Evolution Soccer 2009   Official Guide and Coaching h33tmigel preview 2
Pro Evolution Soccer 2009   Official Guide and Coaching h33tmigel preview 3
Pro Evolution Soccer 2009   Official Guide and Coaching h33tmigel preview 4


Introduction:



Format : AVI
Format/Info : Audio Video Interleave
File size : 41.1 MiB
Duration : 1mn 18s
Overall bit rate : 4 363 Kbps
Writing application : VirtualDubMod 1.5.4.1 (build 2178/release)
Writing library : VirtualDubMod build 2178/release

Video
Format : MPEG-4 Visual
Format profile : Streaming [email protected]
Format settings, BVOP : No
Format settings, QPel : No
Format settings, GMC : No warppoints
Format settings, Matrix : Custom
Codec ID : XVID
Codec ID/Hint : XviD
Duration : 1mn 18s
Bit rate : 3 721 Kbps
Width : 640 pixels
Height : 480 pixels
Display aspect ratio : 4/3
Frame rate : 25.000 fps
Resolution : 24 bits
Colorimetry : 4:2:0
Scan type : Progressive
Bits/(Pixel*Frame) : 0.484
Stream size : 35.0 MiB (85%)
Writing library : XviD 1.2.0.dev47 (UTC 2006-11-01)

Audio #1
Format : MPEG Audio
Format version : Version 1
Format profile : Layer 3
Codec ID : 55
Codec ID/Hint : MP3
Duration : 1mn 18s
Bit rate mode : Variable
Bit rate : 119 Kbps
Minimum bit rate : 128 Kbps
Channel(s) : 2 channels
Sampling rate : 48.0 KHz
Resolution : 16 bits
Stream size : 1.12 MiB (3%)
Alignment : Aligned on interleaves
Interleave, duration : 24 ms (0.60 video frame)
Interleave, preload duration : 532 ms
Writing library : LAME3.97
Encoding settings : ABR
Language : English



Coaching manual:



Format : AVI
Format/Info : Audio Video Interleave
File size : 700 MiB
Duration : 44mn 58s
Overall bit rate : 2 176 Kbps
Writing application : VirtualDubMod 1.5.4.1 (build 2178/release)
Writing library : VirtualDubMod build 2178/release

Video
Format : MPEG-4 Visual
Format profile : Streaming [email protected]
Format settings, BVOP : Yes
Format settings, QPel : No
Format settings, GMC : No warppoints
Format settings, Matrix : Custom
Codec ID : XVID
Codec ID/Hint : XviD
Duration : 44mn 58s
Bit rate : 1 562 Kbps
Width : 640 pixels
Height : 480 pixels
Display aspect ratio : 4/3
Frame rate : 25.000 fps
Resolution : 24 bits
Colorimetry : 4:2:0
Scan type : Progressive
Bits/(Pixel*Frame) : 0.203
Stream size : 502 MiB (72%)
Writing library : XviD 1.2.0.dev47 (UTC 2006-11-01)

Audio #1
Format : MPEG Audio
Format version : Version 1
Format profile : Layer 3
Codec ID : 55
Codec ID/Hint : MP3
Duration : 44mn 58s
Bit rate mode : Variable
Bit rate : 115 Kbps
Minimum bit rate : 128 Kbps
Channel(s) : 2 channels
Sampling rate : 48.0 KHz
Resolution : 16 bits
Stream size : 36.8 MiB (5%)
Alignment : Aligned on interleaves
Interleave, duration : 24 ms (0.60 video frame)
Interleave, preload duration : 516 ms
Writing library : LAME3.97
Encoding settings : ABR
Language : English


Tactics & Strategies:



Format : AVI
Format/Info : Audio Video Interleave
File size : 300 MiB
Duration : 20mn 47s
Overall bit rate : 2 017 Kbps
Writing application : VirtualDubMod 1.5.4.1 (build 2178/release)
Writing library : VirtualDubMod build 2178/release

Video
Format : MPEG-4 Visual
Format profile : Streaming [email protected]
Format settings, BVOP : Yes
Format settings, QPel : No
Format settings, GMC : No warppoints
Format settings, Matrix : Custom
Codec ID : XVID
Codec ID/Hint : XviD
Duration : 20mn 47s
Bit rate : 1 406 Kbps
Width : 720 pixels
Height : 544 pixels
Display aspect ratio : 4/3
Frame rate : 25.000 fps
Resolution : 24 bits
Colorimetry : 4:2:0
Scan type : Progressive
Bits/(Pixel*Frame) : 0.144
Stream size : 209 MiB (70%)
Writing library : XviD 1.2.0.dev47 (UTC 2006-11-01)

Audio #1
Format : MPEG Audio
Format version : Version 1
Format profile : Layer 3
Codec ID : 55
Codec ID/Hint : MP3
Duration : 20mn 47s
Bit rate mode : Variable
Bit rate : 114 Kbps
Minimum bit rate : 128 Kbps
Channel(s) : 2 channels
Sampling rate : 48.0 KHz
Resolution : 16 bits
Stream size : 16.9 MiB (6%)
Alignment : Aligned on interleaves
Interleave, duration : 24 ms (0.60 video frame)
Interleave, preload duration : 566 ms
Writing library : LAME3.97
Encoding settings : ABR
Language : English


Note:
this item will be delivered in time for Christmas in the UK.

More info:
http://www.amazon.co.uk/PES-2009-Evolution-Official-Coaching/dp/1906064210
http://www.amazon.co.uk/gp/help/customer/display.html?nodeId=200037830&pop-up=1

NOTE:
You need help?
[email protected]
[email protected]-=-=-=
=/////////////////////////All packs is CLEAN 100%\\\\\\\\\\\\\\\\\\\\\=
=////////All have ScreenShoot from KasperSky Internet Security\\\\\\\\=
=If you find something with other AV prog I DONT ANSWER in any comment=
=-=-=-=-=-=-=-=-=-=-=-=-=-=-=-=-=-=-=-=-=-=-=-=-=-=-=-=-=-=-=-=-=-=-=-=
=[code]http://www.migel1.blogspot.com[/code]=
=-=-=-=-=-=-=-=-=-=-=-=-=-=-=-=-=-=-=-=-=-=-=

related torrents

Torrent name

health leech seeds Size
 


comments (0)

Main Menu