Other

The Long Riders 1980 dvdrip xvid mp3

  • Download 5x Faster
  • Download torrent
  • Direct Download
  • Rate this torrent +  |  -
The Long Riders 1980 dvdrip xvid mp3

Anonymous and Free Direct Download 300GB+


Torrent info

Name:The Long Riders 1980 dvdrip xvid mp3

Total Size: 1.26 GB

Magnet: Magnet Link

Seeds: 0

Leechers: 0

Stream: Watch Online @ Movie4u

Last Updated: 2012-08-23 13:49:47 (Update Now)

Torrent added: 2008-12-13 00:33:43



VPN For Torrents

Torrent Files List


Screens (Size: 1.26 GB) (Files: 8)

 Screens

  1980.The.Long.Riders.dvdrip.xvid.eng.mp3.avi_001215781.jpg

107.20 KB

  1980.The.Long.Riders.dvdrip.xvid.eng.mp3.avi_001805537.jpg

110.89 KB

  1980.The.Long.Riders.dvdrip.xvid.eng.mp3.avi_001898596.jpg

118.83 KB

 1980.The.Long.Riders.dvdrip.xvid.eng.mp3.avi

1.23 GB

 Cover.jpg

15.60 KB

 Read.Me.nfo

4.39 KB

 Torrent downloaded from Demonoid.com.txt

0.05 KB

 Trailer.avi

37.41 MB
 

Announce URL:

Torrent description

Editorial Reviews: www.amazon.com/Long-Riders-David-Carradine/dp/B000056H2J
Amazon.com
This terrific Walter Hill Western follows the careers of the James and Younger brothers--and uses the nifty idea of casting actual clans of acting siblings in the roles. Thus, the James brothers are played by James and Stacy Keach; the Youngers by David, Keith, and Robert Carradine; the Millers by Randy and Dennis Quaid; and the Fords by Christopher and Nicholas Guest. Hill, working with an evocative Ry Cooder score, creates a film that is at once breathtakingly exciting and elegiac in its treatment of these post-Civil War outlaws. The Keaches in particular bring a surprising dignity to the roles of Frank and Jesse James, while David Carradine is a hoot as Cole Younger--and the Quaids mimic real life (as it was for them then) in their battles as the Miller brothers. Bloody, to be sure, but also bloody good. --Marshall Fine

Product Description
Jesse James and his gang of outlaws ride again in this "extraordinary" (LA Herald-Examiner) western that pulsates with hard-driving action and electrifying drama. Four sets of acclaimed actor brothersDavid, Keith and Robert Carradine, James and Stacy Keach, Dennis and Randy Quaid, and Christopher and Nicholas Guesteach depict real-life siblings in emotionally charged portrayals of the Old West's legendary bandits.The notorious James-Younger gang is the most famous group of outlaws in the country, robbing banks, trains and stagecoaches with a sense of daring that makes them folk heroes throughout the land. But when the mighty Pinkerton detective agency swears to track them down, these criminals must face an awesome enemy that will stop at nothing to see them behind bars...or dead! Only through the strength of their loyalty and blood ties can the outlaws hope to survive the brutal pursuits, unexpected betrayals and blistering showdowns that mark the end of their dangerous ride.


Cast

David Carradine ... Cole Younger
Keith Carradine ... Jim Younger
Robert
Carradine ... Bob Younger
James Keach ... Jesse James
Stacy Keach ... Frank James
Dennis Quaid ... Ed Miller
Randy Quaid ... Clell Miller
Kevin Brophy ... John Younger
Harry Carey Jr. ... George Arthur
Christopher
Guest ... Charlie Ford
Nicholas Guest ... Bob Ford
Shelby
Leverington ... Annie Ralston
Felice Orlandi ... Carl Reddick
Pamela Reed ... Belle Starr
James Remar ... Sam Starr


Tech Stuff

Burn Tested: No

Format : AVI
Format/Info : Audio Video Interleave
File size : 1.23 GiB
Duration : 1h 39mn
Overall bit rate : 1 768 Kbps

Video
Format : MPEG-4 Visual
Format profile : [email protected]
Format settings, BVOP : No
Format settings, QPel : No
Format settings, GMC : No warppoints
Format settings, Matrix : Default
Codec ID : XVID
Codec ID/Hint : XviD
Duration : 1h 39mn
Bit rate : 1 626 Kbps
Width : 640 pixels
Height : 360 pixels
Display aspect ratio : 16/9
Frame rate : 29.970 fps
Original frame rate : 29.969 fps
Resolution : 24 bits
Colorimetry : 4:2:0
Scan type : Progressive
Bits/(Pixel*Frame) : 0.236
Stream size : 1.13 GiB (92%)
Writing library : Magic0432

Audio
Format : MPEG Audio
Format version : Version 1
Format profile : Layer 3
Codec ID : 55
Codec ID/Hint : MP3
Duration : 1h 39mn
Bit rate mode : Constant
Bit rate : 128 Kbps
Channel(s) : 2 channels
Sampling rate : 44.1 KHz
Resolution : 16 bits
Stream size : 91.0 MiB (7%)
Alignment : Aligned on interleaves
Interleave, duration : 26 ms (0.78 video frame)


related torrents

Torrent name

health leech seeds Size
 


comments (0)

Main Menu