Kids

BARNYARDDVDRIPENG KIDZCORNER&J,T,R

  • Download 5x Faster
  • Download torrent
  • Direct Download
  • Rate this torrent +  |  -
BARNYARDDVDRIPENG KIDZCORNER&J,T,R

Free and Direct Download with Usenet 300GB+ free


Torrent info

Name:BARNYARDDVDRIPENG KIDZCORNER&J,T,R

Total Size: 822.06 MB

Magnet: Magnet Link

Seeds: 1

Leechers: 10

Stream: Watch Online @ Movie4u

Last Updated: 2010-08-23 04:37:49 (Update Now)

Torrent added: 2008-12-13 00:33:42




Torrent Files List


BARNYARD_EN (Size: 822.06 MB) (Files: 5)

 BARNYARD_EN

  TITLE01.avi

821.95 MB

 756078_DV_L_B.JPG

56.60 KB

 756078_DV_L_F.JPG

52.67 KB

 Torrent downloaded from Demonoid.com-1.txt

0.05 KB

 Tracked by moviesb4time.biz.txt

1.35 KB
 

Announce URL: http://inferno.demonoid.com:3401/announce

Torrent description

Move over, all you pretenders... here are the original party animals - the animated gang of Barnyard! This laugh-filled adventure stars Otis, a carefree cow who spends his days singing, dancing and playing tricks on humans... much to the dismay of his father, Ben. Wild, wacky and "udderly" hilarious, here's a herd of animated pranksters that'll keep you laughing out loud!

General
Complete name : C:\Users\joker\Documents\BARNYARD[DVDRIP][ENG]-KIDZCORNER&J,T,R\BARNYARD_EN\TITLE01.avi
Format : AVI
Format/Info : Audio Video Interleave
File size : 822 MiB
Duration : 1h 25mn
Overall bit rate : 1 337 Kbps

Video
Format : MPEG-4 Visual
Format profile : [email protected]
Format settings, BVOP : No
Format settings, QPel : No
Format settings, GMC : No warppoints
Format settings, Matrix : Default
Codec ID : XVID
Codec ID/Hint : XviD
Duration : 1h 25mn
Bit rate : 1 197 Kbps
Width : 640 pixels
Height : 360 pixels
Display aspect ratio : 16/9
Frame rate : 25.000 fps
Resolution : 24 bits
Colorimetry : 4:2:0
Scan type : Progressive
Bits/(Pixel*Frame) : 0.208
Stream size : 736 MiB (90%)
Writing library : Magic0432

Audio
Format : MPEG Audio
Format version : Version 1
Format profile : Layer 3
Codec ID : 55
Codec ID/Hint : MP3
Duration : 1h 25mn
Bit rate mode : Constant
Bit rate : 128 Kbps
Channel(s) : 2 channels
Sampling rate : 44.1 KHz
Resolution : 16 bits
Stream size : 78.7 MiB (10%)
Alignment : Aligned on interleaves
Interleave, duration : 26 ms (0.65 video frame)
Writing library : LAME3.97

related torrents

Torrent name

health leech seeds Size
 

comments (0)

Main Menu