Kids

FLUSHED AWAYDVDRIPENG KIDZCORNER&J T R

  • Download 5x Faster
  • Download torrent
  • Direct Download
  • Rate this torrent +  |  -
FLUSHED AWAYDVDRIPENG KIDZCORNER&J T R

Free and Direct Download with Usenet.nl 300GB+ free


Torrent info

Name:FLUSHED AWAYDVDRIPENG KIDZCORNER&J T R

Total Size: 777.43 MB

Magnet: Magnet Link

Seeds: 0

Leechers: 0

Stream: Watch Online @ Movie4u

Last Updated: 2015-09-29 19:18:39 (Update Now)

Torrent added: 2008-12-12 16:37:31





Torrent Files List


FLUSHED_AWAY (Size: 777.43 MB) (Files: 5)

 FLUSHED_AWAY

  TITLE34.avi

777.31 MB

 769832_DV_L_B.JPG

57.94 KB

 769832_DV_L_F.JPG

54.07 KB

 Torrent downloaded from Demonoid.com.txt

0.05 KB

 Tracked by moviesb4time.biz.txt

1.35 KB
 

tracker

leech seeds
 

Torrent description

In one of the year's best-reviewed films, pampered pet mouse Roddy St. James thinks he's got it made ... until he's literally flushed away to a bustling underground world of ninja frogs, hench-rats and singing slugs.

This outrageously inventive comedy-adventure is a flood of fun for both kids and grown-ups.


General
Complete name : C:\Users\joker\Documents\FLUSHED AWAY[DVDRIP][ENG]-KIDZCORNER&J.T.R\FLUSHED_AWAY\TITLE34.avi
Format : AVI
Format/Info : Audio Video Interleave
File size : 777 MiB
Duration : 1h 21mn
Overall bit rate : 1 339 Kbps

Video
Format : MPEG-4 Visual
Format profile : [email protected]
Format settings, BVOP : No
Format settings, QPel : No
Format settings, GMC : No warppoints
Format settings, Matrix : Default
Codec ID : XVID
Codec ID/Hint : XviD
Duration : 1h 21mn
Bit rate : 1 198 Kbps
Width : 640 pixels
Height : 360 pixels
Display aspect ratio : 16/9
Frame rate : 25.000 fps
Resolution : 24 bits
Colorimetry : 4:2:0
Scan type : Progressive
Bits/(Pixel*Frame) : 0.208
Stream size : 696 MiB (90%)
Writing library : Magic0432

Audio
Format : MPEG Audio
Format version : Version 1
Format profile : Layer 3
Codec ID : 55
Codec ID/Hint : MP3
Duration : 1h 21mn
Bit rate mode : Constant
Bit rate : 128 Kbps
Channel(s) : 2 channels
Sampling rate : 44.1 KHz
Resolution : 16 bits
Stream size : 74.3 MiB (10%)
Alignment : Aligned on interleaves
Interleave, duration : 26 ms (0.65 video frame)
Writing library : LAME3.97


related torrents

Torrent name

health leech seeds Size
 

comments (0)

Main Menu