Anime - Other

Psychic Akademie 24/24

  • Download 5x Faster
  • Download torrent
  • Direct Download
  • Rate this torrent +  |  -
Psychic Akademie 24/24

Anonymous and Direct Download 300GB+ free


Torrent info

Name:Psychic Akademie 24/24

Total Size: 2.16 GB

Magnet: Magnet Link

Seeds: 4

Leechers: 4

Stream: Watch Online @ Movie4u

Last Updated: 2010-09-22 03:40:01 (Update Now)

Torrent added: 2008-07-12 06:33:10




Torrent Files List


psychic.jpg (Size: 2.16 GB) (Files: 26)

 psychic.jpg

4.80 KB

 psychik.txt

2.69 KB

 [AFP] Psychic Academy - 01 Zusammenkunft [german-sub][8B2FFF42].avi

81.49 MB

 [AFP] Psychic Academy - 02 Orina [german-sub][94617797].avi

92.69 MB

 [AFP] Psychic Academy - 03 Myuu [german-sub][9C814050].avi

97.14 MB

 [AFP] Psychic Academy - 04 Aura-Kampf [german_sub][558F6731].avi

90.10 MB

 [AFP] Psychic Academy - 05 Training [german_sub][02D92CDD].avi

94.76 MB

 [AFP] Psychic Academy - 06 Flashback [german-sub][83B1BE61].avi

93.35 MB

 [AFP] Psychic Academy - 07 1.Examen [german_sub][0B94245B].avi

98.85 MB

 [AFP] Psychic Academy - 08 2.Examen [german-sub][F6C06E97].avi

93.62 MB

 [AFP] Psychic Academy - 09 3.Examen [german-sub][FD848723].avi

88.27 MB

 [AFP] Psychic Academy - 10 Resonanz [german-sub][177CB954].avi

91.33 MB

 [AFP] Psychic Academy - 11 Erste Liebe [german-sub][B169903E].avi

91.29 MB

 [AFP] Psychic Academy - 12 Faafa [german-sub][49FB998B].avi

92.60 MB

 [AFP] Psychic Academy - 13 Ren [german-sub][D61E9AB3].avi

95.33 MB

 [AFP] Psychic Academy - 14 Geheimnis [german_sub][71B15C78].avi

91.35 MB

 [AFP] Psychic Academy - 15 Wild [german_sub][08FB434A].avi

101.89 MB

 [AFP] Psychic Academy - 16 Ein Herzschlag [german_sub][EFFD0C52].avi

97.07 MB

 [AFP] Psychic Academy - 17 Geburtstagsgeschenk [german_sub][C754D462].avi

97.44 MB

 [AFP] Psychic Academy - 18 Aurajagd [german_sub][AB7DAE2C].avi

88.80 MB

 [TFG] Psychic Academy - 19 Aim [german_sub][D5440DEA].avi

92.34 MB

 [TFG] Psychic Academy - 20 Abduction [german_sub][4413F6F0].avi

86.54 MB

 [TFG] Psychic Academy - 21 Geschwister [german_sub][AF838387].avi

88.46 MB

 [TFG] Psychic Academy - 22 Trainingscamp [german_sub][14C957C0].avi

87.28 MB

 [TFG] Psychic Academy - 23 Verirrte Aura [german_sub][0C92CEE9].avi

87.77 MB

 [TFG] Psychic Academy - 24 Para-Traum [END][german_sub][36F107CB].avi

91.75 MB
 

Announce URL: http://adbt.ath.cx/announce0000000000000000.php

Torrent description

Psychic Akademie 24/24 ger.sub

n der Zukunft haben einige Menschen paranormale Fähigkeiten entwickelt. Um die Nutzung dieser geheimnisvollen Kräfte zu lehren, wurde die Psychic Academy eingerichtet. Einer der neuen Schüler ist Shiomi Ai. Doch der zweifelt an seinen magischen Fähigkeiten und fürchtet mit den anderen nicht Schritt halten zu können. Obendrein trifft er an der Academy seine Sandkastenfreundin Orina wieder. Orina hegt tiefe Gefühle für Ai, die er zu erwidern beginnt. Und dann ist da noch die eigenwillige Myu, die ebenfalls Interesse an ihm zu haben scheint.

Was ist das Geheimnis, das Myus Vergangenheit umgibt und welche Verbindung besteht zwischen ihr und Ai? Was ist die "Aura des Lichts", über die jeder spricht, aber von der niemand wirklich zu wissen scheint, worum es dabei geht? Und was hat das alles mit Ais älterem Bruder zu tun, der den "Fürsten der Angst" besiegt hat und angeblich der mächtigste aller Aurabenutzer ist?

Episode 1:

Format : AVI
Format/Info : Audio Video Interleave
Dateigre : 81.5 MiB
Duration : 10min
Gesamte Bitrate : 1060 Kbps
verwendete Encoder-Bibliothek : VirtualDub build 13130/release

Video
Format : MPEG-4 Visual
Format settings, BVOP : Yes
Format settings, QPel : No
Format settings, GMC : 0 warppoint
Format settings, Matrix : Default
Muxing mode : Packet Bitstream
Codec ID : DX50
Codec ID/Hint : DivX 5
Duration : 10min
Bitrate : 926 Kbps
Breite : 640 Pixel
Höhe : 480 Pixel
Bildseitenverhältnis : 4/3
Bildwiederholungsrate : 14.985 FPS
Auflösung : 8 bits
Colorimetry : 4:2:0
Scan type : Progressive
Bits/(Pixel*Frame) : 0.201
Stream size : 71.2 MiB
verwendete Encoder-Bibliothek : DivX503b830p

Audio
Format : MPEG Audio
Format version : Version 1 / Layer 3
Codec ID : 55
Codec ID/Hint : MP3
Duration : 10min
Bitraten-Modus : CBR
Bitrate : 128 Kbps
Kanäle : 2 Kanäle
Samplingrate : 44.1 KHz
Auflösung : 16 bits
Stream size : 9.84 MiB

Audio: japanisch
Untertitel: deutsch

related torrents

Torrent name

health leech seeds Size
 


comments (0)

Main Menu