Other

BIG JAKEJOHN WAYNEDVDRIPENGJOCKTHERIPPER&KIDZCORNER

  • Download 5x Faster
  • Download torrent
  • Direct Download
  • Rate this torrent +  |  -
BIG JAKEJOHN WAYNEDVDRIPENGJOCKTHERIPPER&KIDZCORNER

Free and Direct Download with Usenet.nl 300GB+ free


Torrent info

Name:BIG JAKEJOHN WAYNEDVDRIPENGJOCKTHERIPPER&KIDZCORNER

Total Size: 699.09 MB

Magnet: Magnet Link

Seeds: 16

Leechers: 2

Stream: Watch Online @ Movie4u

Last Updated: 2011-02-28 13:38:59 (Update Now)

Torrent added: 2008-12-11 20:33:19





Torrent Files List


640046_DV_L_B.JPG (Size: 699.09 MB) (Files: 5)

 640046_DV_L_B.JPG

33.56 KB

 640046_DV_L_F.JPG

26.77 KB

 BIG JAKE.avi

699.03 MB

 Torrent downloaded from Demonoid.com-1.txt

0.05 KB

 Tracked by moviesb4time.biz.txt

1.35 KB
 

Announce URL: http://inferno.demonoid.com:3401/announce

Torrent description

big jake [1971]

In this action-filled Western, JOHN WAYNE
stars as Big Jake McCandles, a husband who hasn't seen his wife (MAUREEN O'HARA) in over 18 years. But he returns home after his grandson is kidnapped by a vicious outlaw gang. While the law gives chase in rickety automobiles, Jake saddles
up with an Indian scout (BRUCE CABOT) and a box of money ­ even though paying a ransom isn't how Jake plans to exact good old frontier justice. Spiced with humor and first-class gunfights, this is a vivid depiction of the last days of the wild frontier.

Big Jake was a family affair for John Wayne. His oldest son Michael produced it and two other sons, Patrick and John Ethan, appear in it. The film also marks the second time RICHARD BOONE and John Wayne worked together and the fifth time Wayne worked with Maureen O'Hara.
------------------------------------------------------------
General
Complete name : C:\Users\joker\Documents\BIG JAKE[JOHN WAYNE[DVDRIP][ENG]JOCKTHERIPPER&KIDZCORNER\BIG JAKE.avi
Format : AVI
Format/Info : Audio Video Interleave
File size : 699 MiB
Duration : 1h 45mn
Overall bit rate : 929 Kbps
Writing application : FairUse Wizard - http://fairusewizard.com
Writing library : The best and REALLY easy backup tool

Video
Format : MPEG-4 Visual
Format profile : Streaming [email protected]
Format settings, BVOP : Yes
Format settings, QPel : No
Format settings, GMC : No warppoints
Format settings, Matrix : Default
Muxing mode : Packed bitstream
Codec ID : XVID
Codec ID/Hint : XviD
Duration : 1h 45mn
Bit rate : 792 Kbps
Width : 656 pixels
Height : 272 pixels
Display aspect ratio : 2.412
Frame rate : 25.000 fps
Resolution : 24 bits
Colorimetry : 4:2:0
Scan type : Progressive
Bits/(Pixel*Frame) : 0.177
Stream size : 595 MiB (85%)
Writing library : XviD 1.2.0.dev47 (UTC 2006-11-01)

Audio
Format : MPEG Audio
Format version : Version 1
Format profile : Layer 3
Codec ID : 55
Codec ID/Hint : MP3
Duration : 1h 45mn
Bit rate mode : Constant
Bit rate : 128 Kbps
Minimum bit rate : 128 Kbps
Channel(s) : 2 channels
Sampling rate : 48.0 KHz
Resolution : 16 bits
Stream size : 96.3 MiB (14%)
Alignment : Aligned on interleaves
Interleave, duration : 40 ms (1.00 video frame)
Interleave, preload duration : 504 ms
Writing library : LAME3.97
Encoding settings : CBR

related torrents

Torrent name

health leech seeds Size
 

comments (0)

Main Menu