Horror

Barbara il mostro di Londra avi

  • Download 5x Faster
  • Download torrent
  • Direct Download
  • Rate this torrent +  |  -
Barbara il mostro di Londra avi

Anonymous and Free Direct Download 300GB+


Torrent info

Name:Barbara il mostro di Londra avi

Total Size: 838.42 MB

Magnet: Magnet Link

Seeds: 1

Leechers: 0

Stream: Watch Online @ Movie4u

Last Updated: 2015-09-17 10:31:28 (Update Now)

Torrent added: 2008-12-11 12:49:23



VPN For Torrents

Torrent Files List


Barbara il mostro di Londra.avi (Size: 838.42 MB) (Files: 1)

 Barbara il mostro di Londra.avi

838.42 MB
 

tracker

leech seeds
 

Torrent description

Barbara Il Mostro di Londra,[DivX - Ita Eng Mp3][www.tntvillage.scambioetico.org]

Scheda del film

Titolo:Barbara Il Mostro di Londra
Titolo originale:Dr Jekyll & Sister Hyde
Nazionalità:Gran Bretagna
Anno:1971
Genere:Horror
Regia:Roy Ward Baker
Produzione:Hammer
Distribuzione:Skorpion Entertainment
Data di uscita:1971

Cast

Ralph Bates, Martine Beswick, Gerald Sim, Lewis Fiander,
Susan Brodrick, Dorothy Alison, Ivor Dean, Philip Madoc

Scheda tecnica del DivX (Mediainfo)

General
Complete name : Barbara il mostro di Londra.avi
Format : AVI
Format/Info : Audio Video Interleave
File size : 838 MiB
Duration : 1h 33mn
Overall bit rate : 1 260 Kbps
Writing application : VirtualDubMod 1.5.10.1 (build 2366/release)
Writing library : VirtualDubMod build 2366/release

Video
Format : MPEG-4 Visual
Format settings, BVOP : Yes
Format settings, QPel : No
Format settings, GMC : No warppoints
Format settings, Matrix : Default
Muxing mode : Packed bitstream
Codec ID : DX50
Codec ID/Hint : DivX 5
Duration : 1h 33mn
Bit rate : 990 Kbps
Width : 640 pixels
Height : 336 pixels
Display aspect ratio : 1.905
Frame rate : 25.000 fps
Resolution : 24 bits
Colorimetry : 4:2:0
Scan type : Progressive
Bits/(Pixel*Frame) : 0.184
Stream size : 659 MiB (79%)
Writing library : DivX 5.1.1 (Maupiti) (UTC 2003-11-19)

Audio #1
Format : MPEG Audio
Format version : Version 1
Format profile : Layer 3
Codec ID : 55
Codec ID/Hint : MP3
Duration : 1h 33mn
Bit rate mode : Constant
Bit rate : 128 Kbps
Channel(s) : 2 channels
Sampling rate : 44.1 KHz
Resolution : 16 bits
Stream size : 85.0 MiB (10%)
Alignment : Aligned on interleaves
Interleave, duration : 40 ms (1.00 video frame)
Interleave, preload duration : 521 ms
Writing library : LAME3.95

Audio #2
Format : MPEG Audio
Format version : Version 1
Format profile : Layer 3
Codec ID : 55
Codec ID/Hint : MP3
Duration : 1h 33mn
Bit rate mode : Constant
Bit rate : 128 Kbps
Channel(s) : 2 channels
Sampling rate : 44.1 KHz
Resolution : 16 bits
Stream size : 85.0 MiB (10%)
Alignment : Aligned on interleaves
Interleave, duration : 40 ms (1.00 video frame)
Interleave, preload duration : 521 ms
Writing library : LAME3.95

related torrents

Torrent name

health leech seeds Size
 


comments (0)

Main Menu