Drama

State of the Union 1948 dvdrip xvid eng mp3 2 CDs Fixed

  • Download 5x Faster
  • Download torrent
  • Direct Download
  • Rate this torrent +  |  -
State of the Union 1948 dvdrip xvid eng mp3 2 CDs Fixed

Free and Direct Download with Usenet.nl 300GB+ free


Torrent info

Name:State of the Union 1948 dvdrip xvid eng mp3 2 CDs Fixed

Total Size: 1.37 GB

Magnet: Magnet Link

Seeds: 1

Leechers: 5

Stream: Watch Online @ Movie4u

Last Updated: 0000-00-00 00:00:00 (Update Now)

Torrent added: 2008-12-11 08:23:42





Torrent Files List


1948 - State of the Union CD1.avi (Size: 1.37 GB) (Files: 7)

 1948 - State of the Union CD1.avi

698.51 MB

 1948 - State of the Union CD2.avi

699.65 MB

 Cover.jpg

31.86 KB

 Read.Me.nfo

5.31 KB

 State of the Union CD1_eng.srt

99.99 KB

 State of the Union CD2_eng.srt

101.37 KB

 Torrent downloaded from Demonoid.com.txt

0.05 KB
 

Announce URL: http://inferno.demonoid.com:3401/announce

Torrent description

Synopsis

Kay Thordyke loves Grant Matthews and helps him become Republican nominee for President. The party machine begins to worry as Grant begins to speak for himself. At an important dinner his wife Mary condemns corrupt politicians and Grant learns to speak out even more boldly..


Cast

Spencer Tracy ... Grant Matthews
Katharine
Hepburn ... Mary Matthews (as Katherine Hepburn)
Van Johnson ... 'Spike' McManus
Angela Lansbury ... Kay Thorndyke
Adolphe Menjou ... Jim Conover (as Adolph Menjou)
Lewis Stone ... Sam Thorndyke
Howard Smith ... Sam I. Parrish
Charles Dingle ... Bill Nolard Hardy
Maidel Turner ... Lulubelle Alexander
Raymond Walburn ... Judge Alexander
Margaret
Hamilton ... Norah
Art Baker ... Radio Announcer
Pierre Watkin ... Sen. Lauterback
Florence Auer ... Grace Orval Draper
Irving Bacon ... Buck Swanson


Tech Stuff ~ Only if you really need to know (from Media Info)

Burn Tested: No
Includes: srt subtitles (English)

CD 1
Format : AVI
Format/Info : Audio Video Interleave
File size : 699 MiB
Duration : 1h 4mn
Overall bit rate : 1 516 Kbps
Writing application : Nandub v1.0rc2
Writing library : Nandub build 1852/release

Video
Format : MPEG-4 Visual
Format profile : Streaming [email protected]
Format settings, BVOP : Yes
Format settings, QPel : No
Format settings, GMC : No warppoints
Format settings, Matrix : Default
Muxing mode : Packed bitstream
Codec ID : XVID
Codec ID/Hint : XviD
Duration : 1h 4mn
Bit rate : 1 433 Kbps
Width : 544 pixels
Height : 400 pixels
Display aspect ratio : 4/3
Frame rate : 23.976 fps
Resolution : 24 bits
Colorimetry : 4:2:0
Scan type : Progressive
Bits/(Pixel*Frame) : 0.275
Stream size : 660 MiB (95%)
Writing library : XviD 1.0.3 (UTC 2004-12-20)

Audio
Format : MPEG Audio
Format version : Version 1
Format profile : Layer 3
Codec ID : 55
Codec ID/Hint : MP3
Duration : 1h 4mn
Bit rate mode : Variable
Bit rate : 70.5 Kbps
Minimum bit rate : 48.0 Kbps
Channel(s) : 1 channel
Sampling rate : 48.0 KHz
Resolution : 16 bits
Stream size : 32.2 MiB (5%)
Alignment : Aligned on interleaves
Interleave, duration : 24 ms (0.58 video frame)
Interleave, preload duration : 250 ms
Writing library : LAME3.93
Encoding settings : VBR (mtrh)

CD 2
Format : AVI
Format/Info : Audio Video Interleave
File size : 700 MiB
Duration : 58mn 8s
Overall bit rate : 1 682 Kbps
Writing application : Nandub v1.0rc2
Writing library : Nandub build 1852/release

Video
Format : MPEG-4 Visual
Format profile : Streaming [email protected]
Format settings, BVOP : Yes
Format settings, QPel : No
Format settings, GMC : No warppoints
Format settings, Matrix : Default
Muxing mode : Packed bitstream
Codec ID : XVID
Codec ID/Hint : XviD
Duration : 58mn 8s
Bit rate : 1 598 Kbps
Width : 544 pixels
Height : 400 pixels
Display aspect ratio : 4/3
Frame rate : 23.976 fps
Resolution : 24 bits
Colorimetry : 4:2:0
Scan type : Progressive
Bits/(Pixel*Frame) : 0.306
Stream size : 665 MiB (95%)
Writing library : XviD 1.0.3 (UTC 2004-12-20)

Audio
Format : MPEG Audio
Format version : Version 1
Format profile : Layer 3
Codec ID : 55
Codec ID/Hint : MP3
Duration : 58mn 8s
Bit rate mode : Variable
Bit rate : 70.5 Kbps
Channel(s) : 1 channel
Sampling rate : 48.0 KHz
Resolution : 16 bits
Stream size : 29.7 MiB (4%)
Alignment : Aligned on interleaves
Interleave, duration : 24 ms (0.58 video frame)
Interleave, preload duration : 405 ms

related torrents

Torrent name

health leech seeds Size
 

comments (0)

Main Menu