Comedy

Fitzwilly 1967 tvrip xvid eng mp3

  • Download 5x Faster
  • Download torrent
  • Direct Download
  • Rate this torrent +  |  -
Fitzwilly 1967 tvrip xvid eng mp3

Anonymous and Direct Download 300GB+ free


Torrent info

Name:Fitzwilly 1967 tvrip xvid eng mp3

Total Size: 782.44 MB

Magnet: Magnet Link

Seeds: 0

Leechers: 0

Stream: Watch Online @ Movie4u

Last Updated: 2011-03-07 13:55:50 (Update Now)

Torrent added: 2008-12-11 00:34:08




Torrent Files List


1967.Fitzwilly.tvrip.xvid.eng.mp3.avi (Size: 782.44 MB) (Files: 3)

 1967.Fitzwilly.tvrip.xvid.eng.mp3.avi

782.44 MB

 Read.Me.nfo

4.01 KB

 Torrent downloaded from Demonoid.com.txt

0.05 KB
 

Announce URL: http://inferno.demonoid.com:3401/announce

Torrent description

Not my rip...found this at Cinemageddon and thought you would like it...good Xmas period flick. Not exacly a Christmas movie but set about that time.



From Wikipedia (http://en.wikipedia.org/wiki/Fitzwilly)

Fitzwilliam is the butler to Miss Victoria Woodworth (Edith Evans), a formerly wealthy heiress who has given all her money to charity and does not realize it. Miss Woodworth has hired an assistant, Juliet Nowell (Barbara Feldon), for her creation of A Dictionary for Dopes, which contains all possible phonetic spellings of words so that one can look up a correct one. Hints of romance emerge between Claude and Juliet, who tries to get him to go to night school, but he informs her that he already has a degree, and that she would be surprised how much intelligence it takes to be Miss Woodworth's butler. The audience knows long before Juliet does that Fitzwilly has been leading the household staff on numerous raids and swindles so that less generous rich people can fund Miss Woodworth's charitable actions, as well as barroom tricks such as betting that Delilah did not cut off Samson's hair--"I'm in a room full of heathens--Judges 16:19."

The film's finale setpiece has the Woodworth staff orchestrating a complex robbery of Gimbel's Department Store, with Fitzwilly in old age makeup, highly resembling Van Dyke's appearance in Diagnosis: Murder.

IMDb: http://www.imdb.com/title/tt0061669/

Cast

Dick Van Dyke ... Claude Fitzwilliam
Barbara Feldon ... Juliet Nowell
John McGiver ... Albert
Edith Evans ... Miss Victoria Woodworth
Harry Townes ... Mr. Nowell
John Fiedler ... Mr. Morton Dunne
Anne Seymour ... Grimsby
Norman Fell ... Oberblatz
Cecil Kellaway ... Buckmaster
Stephen
Strimpell ... Byron Casey
Helen Kleeb ... Mrs. Mortimer
Paul Reed ... Prettikin
Albert Carrier ... Pierre
Nelson Olmsted ... Simmons
Dennis Cooney ... Elliot Adams


Tech Stuff

Burn Tested: No

Format : AVI
Format/Info : Audio Video Interleave
File size : 782 MiB
Duration : 1h 38mn
Overall bit rate : 1 112 Kbps
Writing application : VirtualDubMod 1.5.10.2 (build 2540/release)
Writing library : VirtualDub build 28312/release

Video
Format : MPEG-4 Visual
Format profile : Streaming [email protected]
Format settings, BVOP : Yes
Format settings, QPel : No
Format settings, GMC : No warppoints
Format settings, Matrix : Default
Muxing mode : Packed bitstream
Codec ID : XVID
Codec ID/Hint : XviD
Duration : 1h 38mn
Bit rate : 911 Kbps
Width : 624 pixels
Height : 272 pixels
Display aspect ratio : 2.25
Frame rate : 25.000 fps
Resolution : 24 bits
Colorimetry : 4:2:0
Scan type : Progressive
Bits/(Pixel*Frame) : 0.215
Stream size : 641 MiB (82%)
Writing library : XviD 1.2.0.dev47 (UTC 2006-11-01)

Audio
Format : MPEG Audio
Format version : Version 1
Format profile : Layer 3
Codec ID : 55
Codec ID/Hint : MP3
Duration : 1h 38mn
Bit rate mode : Constant
Bit rate : 192 Kbps
Channel(s) : 2 channels
Sampling rate : 44.1 KHz
Resolution : 16 bits
Stream size : 135 MiB (17%)
Alignment : Split accross interleaves
Interleave, duration : 40 ms (1.00 video frame)
Interleave, preload duration : 500 ms



related torrents

Torrent name

health leech seeds Size
 


comments (0)

Main Menu