Other

APACHEBURT LANCASTERDVDRIPENG JOCKTHERIPPER&KIDZCORNER

  • Download 5x Faster
  • Download torrent
  • Direct Download
  • Rate this torrent +  |  -
APACHEBURT LANCASTERDVDRIPENG JOCKTHERIPPER&KIDZCORNER

Anonymous and Direct Download 300GB+ free


Torrent info

Name:APACHEBURT LANCASTERDVDRIPENG JOCKTHERIPPER&KIDZCORNER

Total Size: 698.06 MB

Magnet: Magnet Link

Seeds: 4

Leechers: 6

Stream: Watch Online @ Movie4u

Last Updated: 0000-00-00 00:00:00 (Update Now)

Torrent added: 2008-12-11 00:34:05




Torrent Files List


475618_DV_L_B.JPG (Size: 698.06 MB) (Files: 5)

 475618_DV_L_B.JPG

46.96 KB

 475618_DV_L_F.JPG

38.70 KB

 APPACHE.avi

697.98 MB

 Torrent downloaded from Demonoid.com.txt

0.05 KB

 Tracked by moviesb4time.biz.txt

1.35 KB
 

Announce URL: http://inferno.demonoid.com:3401/announce

Torrent description

APACHE [1954]

Oscar winner Burt Lancaster stars in an action-packed western that pulsates with the power and passion of an Indian war drum. Based on a thrilling true story and featuring masterful direction by Robert Aldrich (The Dirty Dozen) and a powerful screenplay by Oscar winner James R. Webb, Apache explodes with spectacular battle sequences, breathtaking chases and unbridled suspense.
After years of bloody fighting with settlers on the American frontier, Apache Chief Geronimo (Monte Blue) is forced to submit to a humiliating surrender. But his fiercest warrior, Massai (Lancaster), refuses to accept defeat. With enormous strength and razor-sharp cunning, Massai battles the relentless U.S Cavalry, struggling to stay one step ahead of the highly trained soldiers who have sworn to track him down. And as his crusade escalates into a final epic showdown, Massai knows that he must persevere, not only for his life, but also for the pride of his entire race.

-----------------------------------------------------------------------------------
General
Complete name : C:\Users\joker\Desktop\APACHE[BURT LANCASTER][DVDRIP][ENG]-JOCKTHERIPPER&KIDZCORNER\APPACHE.avi
Format : AVI
Format/Info : Audio Video Interleave
File size : 698 MiB
Duration : 1h 23mn
Overall bit rate : 1 164 Kbps
Writing application : FairUse Wizard - http://fairusewizard.com
Writing library : The best and REALLY easy backup tool

Video
Format : MPEG-4 Visual
Format profile : Streaming [email protected]
Format settings, BVOP : Yes
Format settings, QPel : No
Format settings, GMC : No warppoints
Format settings, Matrix : Default
Muxing mode : Packed bitstream
Codec ID : XVID
Codec ID/Hint : XviD
Duration : 1h 23mn
Bit rate : 1 026 Kbps
Width : 544 pixels
Height : 400 pixels
Display aspect ratio : 4/3
Frame rate : 25.000 fps
Resolution : 24 bits
Colorimetry : 4:2:0
Scan type : Progressive
Bits/(Pixel*Frame) : 0.189
Stream size : 615 MiB (88%)
Writing library : XviD 1.2.0.dev47 (UTC 2006-11-01)

Audio
Format : MPEG Audio
Format version : Version 1
Format profile : Layer 3
Codec ID : 55
Codec ID/Hint : MP3
Duration : 1h 23mn
Bit rate mode : Constant
Bit rate : 128 Kbps
Minimum bit rate : 128 Kbps
Channel(s) : 2 channels
Sampling rate : 48.0 KHz
Resolution : 16 bits
Stream size : 76.8 MiB (11%)
Alignment : Aligned on interleaves
Interleave, duration : 40 ms (1.00 video frame)
Interleave, preload duration : 504 ms
Writing library : LAME3.97
Encoding settings : CBR

related torrents

Torrent name

health leech seeds Size
 


comments (0)

Main Menu