Action

Eagle Eye 2008 DVDRIP XviD ZEKTORM

  • Download 5x Faster
  • Download torrent
  • Direct Download
  • Rate this torrent +  |  -
Eagle Eye 2008 DVDRIP XviD ZEKTORM

Anonymous and free Direct Download 300GB+


Torrent info

Name:Eagle Eye 2008 DVDRIP XviD ZEKTORM

Total Size: 725.51 MB

Magnet: Magnet Link

Seeds: 0

Leechers: 0

Stream: Watch Online @ Movie4u

Last Updated: 0000-00-00 00:00:00 (Update Now)

Torrent added: 2008-12-09 00:37:30



VPN For Torrents

Torrent Files List


Eagle.Eye.2008.DVDRIP.XviD-ZEKTORM.avi (Size: 725.51 MB) (Files: 4)

 Eagle.Eye.2008.DVDRIP.XviD-ZEKTORM.avi

700.53 MB

 READ.hlp

1.95 KB

 Subs

  Eagle.Eye.2008.DVDRIP.XviD-ZEKTORM.idx

389.65 KB

  Eagle.Eye.2008.DVDRIP.XviD-ZEKTORM.sub

24.59 MB
 

Announce URL: http://inferno.demonoid.com:3417/announce

Torrent description

Title : Eagle Eye
Year : 2008
Genre : Action | Mystery | Thriller
iMDB Rate : User Rating: 6.8/10 15,554 votes
iMDB URL : http://www.imdb.com/title/tt1059786/

Complete name : Eagle.Eye.2008.DVDRIP.XviD-ZEKTORM.avi
Format : AVI
File size : 701 MiB
Duration : 1h 57mn
Overall bit rate : 833 Kbps
Subtitles : English, Spanish, French (Format: VobSub)
Source : DVD NTSC

Video
Format : MPEG-4 Visual
Format profile : Streaming [email protected]
Codec ID : DX50
Codec ID/Hint : DivX 5
Duration : 1h 57mn
Bit rate : 714 Kbps
Width : 720 pixels
Height : 304 pixels
Display aspect ratio : 2.35
Frame rate : 23.976 fps
Resolution : 24 bits
Colorimetry : 4:2:0
Scan type : Progressive
Bits/(Pixel*Frame) : 0.136
Stream size : 600 MiB (86%)
Writing library : XviD 1.1.2

Audio
Format : MPEG Audio
Format version : Version 1
Format profile : Layer 3
Codec ID : 55
Codec ID/Hint : MP3
Duration : 1h 57mn
Bit rate mode : Constant
Bit rate : 112 Kbps
Channel(s) : 2 channels
Sampling rate : 44.1 KHz
Resolution : 16 bits
Stream size : 94.2 MiB (13%)

related torrents

Torrent name

health leech seeds Size
 


comments (0)

Main Menu