Anime - Other

Royal Space Force The Wings Of Honneamise 1987 720p BluRay Rip in MP4 for PS3 and XboX 360

  • Download 5x Faster
  • Download torrent
  • Direct Download
  • Rate this torrent +  |  -

Torrent info

Name:Royal Space Force The Wings Of Honneamise 1987 720p BluRay Rip in MP4 for PS3 and XboX 360

Total Size: 3.90 GB

Magnet: Magnet Link

Seeds: 0

Leechers: 0

Stream: Watch Online @ Movie4u

Last Updated: 2011-01-09 08:14:22 (Update Now)

Torrent added: 2008-12-09 00:33:03




Torrent Files List


ROYAL SPACE FORCE - THE WINGS OF HONNEAMISE [1987].nfo (Size: 3.90 GB) (Files: 5)

 ROYAL SPACE FORCE - THE WINGS OF HONNEAMISE [1987].nfo

6.73 KB

 RoyalSpaceForce.The.Wings.of.Honneamise[1987].ac3

549.09 MB

 RoyalSpaceForce.The.Wings.of.Honneamise[1987].mp4

3.36 GB

 RSF_TWOH_Poster.jpg

213.59 KB

 Torrent downloaded from Demonoid.com.txt

0.05 KB
 

Announce URL:

Torrent description

ROYAL SPACE FORCE - THE WINGS OF HONNEAMISE [1987] MP4 for PS3 and XboX 360

ROYAL SPACE FORCE - THE WINGS OF HONNEAMISE [1987]
IMDB Link: http://www.imdb.com/title/tt0093207/

Video: 720p 1280x720 H.264 video (1080p Blu-Ray source) DXVA compatible
Audio: 2.0 192kbps AAC-LC Japanese Audio (2 channel Stereo Dolby Pro Logic II Surround Sound capable)
Subtitles: English Language subtitles (hard coded)
Source: The_Wings_of_Honneamise_(1987)_[720p,BluRay,x264]_-_THORA

SYNOPSIS:
Shirotsugh Lhadatt is an unmotivated young man who has drifted into his
nation's lackadaisical space program which is largely viewed as a joke
as well as a waste of precious money and resources. After the death of a
fellow astronaut, he nurtures a close acquaintance with a young religious
woman named Riquinni Nonderaiko, whose loyalty to her faith has seen her
through many of the problems in her life. Seeing Lhadatt as a prime example
of what mankind is capable of doing and the godliness and ground-breaking
nature of space exploration, she motivates Lhadatt, who is then inspired to
become the first man in space. Lhadatt and his fellow cadets plus a team of
aging scientists rush to complete their epic launch before the military uses
their space program as bait to start an all-out war with an enemy nation.

ABOUT THIS BIT TORRENT:
Presented here is a MP4 file. This was re-encoded from a previous release by
a group called THORA. Problem is they screwed up royally although in their
defense I believe their rip came at a time when no one was really sure of the
best way of doing such a rip. What I did was to take their rip and re-encode it
to DXVA specifications so any DXVA capable device will be able to play this
(such as the PS3 or XboX 360 or the Popcorn Hour devices etc.) however this does
mean that I had to downsample the original 5.1 640kbps AC-3 audio file to a
standard 2 channel Stereo (although Dolby Pro Logic II Surround Sound capable)
file. For those with a PS3 I have included the 5.1 640kbps AC-3 audio file. If
you have the know how (using YAMB and tsMuxeR) you can demux or extract the
H.264 video from the MP4 and remux it with the AC-3 audio file to create a M2TS
file thus giving you 5.1 AC-3 on a PS3 or any other M2TS supporting device.

TECHNICAL DETAILS:
The video and audio were re-encoded using XVID4PSP using the "MP4 PS3/XBOX 360"
profile and although I used the "x264 Q18 Ultra" setting I actually changed the
Quantizer to 19 instead of 18. This resulted in a MP4 with a file size of about
3.35GB but if you remux the H.264 video with the 5.1 AC-3 audio file then you
get a file size of about 3.98GB so either way you are under the "dreaded" 4.0GB
barrier of FAT32 thus allowing you to use an external HDD. Please note that the
original release by THORA had an "oddball" resolution of 1280x736. Not sure what
kind of cropping/resizing they did in order to get that resolution. I considered
3 different ways of making it 1280x720 but in the end I simply cut 8 pixels from
the top and 8 pixels from the bottom to get from 736 to 720 and this was the
best way to go about it in terms of quality as no resizing had to be done and
you are NOT going to miss 8 pixels of information. Yes I did consider resizing
it from 1280x736 to 1252x720 with no cropping but then there would be 14 black
pixels on either side (to make it a width of 1280 in total) plus a resize which
would have hurt the quality a bit. So I think my solution was best. Maybe one
day in the future once I have my own Blu-Ray drive on my computer I'll do a
proper straight BDRip in 1080p although I wouldn't hold my breath on that as
that may take a while! For now this is as good as it gets and it is very good.
Despite being a re-encode of a 720p BDRip the quality here in terms of video and
audio is super!

[ A Big Thank You to THORA for making my torrent possible ]

[ This torrent uses the DEMONOID.COM Tracker ]

MEDIA INFO "text" ouput:

General
Complete name : Y:RoyalSpaceForce.The.Wings.of.Honneamise[1987].mp4
Format : MPEG-4
Format profile : Base Media
Codec ID : isom
File size : 3.36 GiB
Duration : 1h 59mn
Overall bit rate : 4 010 Kbps
Encoded date : UTC 2008-12-05 13:51:31
Tagged date : UTC 2008-12-05 13:51:31

Video
Format : AVC
Format/Info : Advanced Video Codec
Format profile : [email protected]
Format settings, CABAC : Yes
Format settings, ReFrames : 3 frames
Codec ID : avc1
Codec ID/Info : Advanced Video Coding
Duration : 1h 59mn
Bit rate mode : Variable
Bit rate : 3 813 Kbps
Maximum bit rate : 14.2 Mbps
Width : 1 280 pixels
Height : 720 pixels
Display aspect ratio : 16/9
Frame rate mode : Constant
Frame rate : 23.976 fps
Resolution : 24 bits
Colorimetry : 4:2:0
Scan type : Progressive
Bits/(Pixel*Frame) : 0.173
Stream size : 3.19 GiB (95%)
Writing library : x264 core 65 r999kMod cc51047
Encoding settings : Please see the NFO for complete info
Encoded date : UTC 2008-12-05 13:51:31
Tagged date : UTC 2008-12-05 14:00:46

Audio
Format : AAC
Format/Info : Advanced Audio Codec
Format version : Version 4
Format profile : LC
Format settings, SBR : No
Codec ID : 40
Duration : 1h 59mn
Bit rate mode : Variable
Bit rate : 192 Kbps
Maximum bit rate : 233 Kbps
Channel(s) : 2 channels
Channel positions : L R
Sampling rate : 48.0 KHz
Resolution : 16 bits
Stream size : 167 MiB (5%)
Encoded date : UTC 2008-12-05 14:00:16
Tagged date : UTC 2008-12-05 14:00:46

related torrents

Torrent name

health leech seeds Size
 

comments (0)

Main Menu