Comedy

Leningrad Cowboys Meet Moses avi

  • Download 5x Faster
  • Download torrent
  • Direct Download
  • Rate this torrent +  |  -
Leningrad Cowboys Meet Moses avi

Anonymous and Free Direct Download 300GB+


Torrent info

Name:Leningrad Cowboys Meet Moses avi

Total Size: 738.39 MB

Magnet: Magnet Link

Seeds: 3

Leechers: 0

Stream: Watch Online @ Movie4u

Last Updated: 2015-05-21 20:31:20 (Update Now)

Torrent added: 2008-12-08 06:00:37



VPN For Torrents

Torrent Files List


Leningrad Cowboys Meet Moses.avi (Size: 738.39 MB) (Files: 1)

 Leningrad Cowboys Meet Moses.avi

738.39 MB
 

tracker

leech seeds
 

Torrent description

Leningrad Cowboys Meet Moses, [DivX - Eng Mp3 - sub Ita][www.tntvillage.scambioetico.org]

Scheda del film

Titolo: Leningrad Cowboys Meet Moses
Titolo originale: Leningrad Cowboys Meet Moses
Nazionalità: Germani, Francia, Finlandia
Anno: 1994
Genere: Commedia, Musicale
Regia: Aki Kaurismäki
Produzione: Pandora Filmproduktion GMBH, La sept Cinema, Sputnik OY
Distribuzione: Pyramide
Data di uscita: 1994

Cast

Twist-Twist Erkinharju, Ben Granfelt, Sakke Järvenpää, Jore Marjaranta, Ekke Niiva, Jyri Närvänen, Pemo Ojala, Silu Seppälä, Mauri Sumén, Mato Valtonen, Matti Pellonpää, Kari Väänänen, André
Wilms, Aki Kaurismäki, Kirsi Tykkyläinen, Nicky Tesco.

Scheda tecnica del DivX (Mediainfo)

General

Complete name : Leningrad Cowboys Meet Moses.avi
Format : AVI
Format/Info : Audio Video Interleave
File size : 738 MiB
Duration : 1h 30mn
Overall bit rate : 1 144 Kbps
Writing application : VirtualDubMod 1.5.10.2 (build 2540/release)
Writing library : VirtualDubMod build 2540/release

Video

Format : MPEG-4 Visual
Format settings, BVOP : No
Format settings, QPel : No
Format settings, GMC : No warppoints
Format settings, Matrix : Default
Codec ID : DX50
Codec ID/Hint : DivX 5
Duration : 1h 30mn
Bit rate : 1 007 Kbps
Width : 576 pixels
Height : 304 pixels
Display aspect ratio : 1.895
Frame rate : 25.000 fps
Resolution : 24 bits
Colorimetry : 4:2:0
Scan type : Progressive
Bits/(Pixel*Frame) : 0.230
Stream size : 650 MiB (88%)
Writing library : DivX 5.2.1 (WaffleDay) (UTC 2004-09-08)

Audio

Format : MPEG Audio
Format version : Version 1
Format profile : Layer 3
Codec ID : 55
Codec ID/Hint : MP3
Duration : 1h 30mn
Bit rate mode : Constant
Bit rate : 128 Kbps
Channel(s) : 2 channels
Sampling rate : 48.0 KHz
Resolution : 16 bits
Stream size : 82.6 MiB (11%)
Alignment : Aligned on interleaves
Interleave, duration : 40 ms (1.00 video frame)
Interleave, preload duration : 504 ms

related torrents

Torrent name

health leech seeds Size

Leningrad Cowboys

0 0 2.00 GB 0

Leningrad Cowboys

0 3 627.00 MB 0
 


comments (0)

Main Menu