Linux

Artificial Intelligence H33T RICO

  • Download 5x Faster
  • Download torrent
  • Direct Download
  • Rate this torrent +  |  -
Artificial Intelligence H33T RICO

Anonymous and Free Direct Download 300GB+


Torrent info

Name:Artificial Intelligence H33T RICO

Total Size: 1.09 GB

Magnet: Magnet Link

Seeds: 0

Leechers: 0

Stream: Watch Online @ Movie4u

Last Updated: 2010-09-30 12:14:53 (Update Now)

Torrent added: 2008-12-08 04:36:25



VPN For Torrents

Torrent Files List


Artificial Intelligence - AI [2001-DVDRip-H.264-x264]-RICO.mp4 (Size: 1.09 GB) (Files: 8)

 Artificial Intelligence - AI [2001-DVDRip-H.264-x264]-RICO.mp4

1.09 GB

 Artificial Intelligence - AI [2001-DVDRip-H.264-x264]-RICO.nfo

8.30 KB

 MEDIA INFO.DOC

3.52 KB

 Poster.jpg

30.51 KB

 Snapshots.rar

1.67 MB

 Subs [English-Spanish-French].rar

2.42 MB

 tracked_by_h33t_com.txt

0.02 KB

 Tutorials.rar

3.08 KB
 

Announce URL: http://www.h33t.com:3310/announce

Torrent description

General
Complete name : G:\Movies\Artificial Intelligence - AI [2001-DVDRip-H.264-x264]-RICO\Artificial Intelligence - AI [2001-DVDRip-H.264-x264]-RICO.mp4
Format : MPEG-4
Format profile : Base Media / Version 2
Codec ID : mp42
File size : 1.09 GiB
Duration : 2h 25mn
Overall bit rate : 1 067 Kbps
Encoded date : UTC 2008-07-15 07:07:02
Tagged date : UTC 2008-07-15 07:07:02

Video
Format : AVC
Format/Info : Advanced Video Codec
Format profile : [email protected]
Format settings, CABAC : Yes
Format settings, ReFrames : 5 frames
Codec ID : avc1
Codec ID/Info : Advanced Video Coding
Duration : 2h 25mn
Bit rate mode : Variable
Bit rate : 926 Kbps
Maximum bit rate : 8 807 Kbps
Width : 736 pixels
Height : 400 pixels
Display aspect ratio : 16/9
Frame rate mode : Constant
Frame rate : 23.976 fps
Resolution : 24 bits
Colorimetry : 4:2:0
Scan type : Progressive
Bits/(Pixel*Frame) : 0.131
Stream size : 966 MiB (87%)
Writing library : x264 core 60 r912M 9c5e557
Encoding settings : cabac=1 / ref=5 / deblock=1:0:-1 / analyse=0x3:0x113 / me=umh / subme=7 / psy_rd=1.000000 / brdo=1 / mixed_ref=1 / me_range=32 / chroma_me=1 / trellis=2 / 8x8dct=1 / cqm=0 / deadzone=21,11 / chroma_qp_offset=0 / threads=6 / nr=0 / decimate=1 / mbaff=0 / bframes=5 / b_pyramid=1 / b_adapt=1 / b_bias=0 / direct=3 / wpredb=1 / bime=1 / keyint=240 / keyint_min=24 / scenecut=40(pre) / rc=2pass / bitrate=926 / ratetol=1.0 / rceq='blurCplx^(1-qComp)' / qcomp=1.00 / qpmin=10 / qpmax=51 / qpstep=4 / cplxblur=20.0 / qblur=0.5 / ip_ratio=1.40 / pb_ratio=1.30 / aq=2:1.00
Language : English
Encoded date : UTC 2008-07-15 00:15:10
Tagged date : UTC 2008-07-15 07:09:59

Audio
Format : AAC
Format/Info : Advanced Audio Codec
Format version : Version 4
Format profile : LC
Format settings, SBR : No
Codec ID : 40
Duration : 2h 25mn
Bit rate mode : Variable
Bit rate : 137 Kbps
Maximum bit rate : 235 Kbps
Channel(s) : 2 channels
Channel positions : L R
Sampling rate : 48.0 KHz
Resolution : 16 bits
Stream size : 143 MiB (13%)
Language : English
Encoded date : UTC 2008-07-15 07:08:53
Tagged date : UTC 2008-07-15 07:09:59

related torrents

Torrent name

health leech seeds Size
 


comments (0)

Main Menu