Comedy

Black Hawk DownH33T RICO

  • Download 5x Faster
  • Download torrent
  • Direct Download
  • Rate this torrent +  |  -
Black Hawk DownH33T RICO

Free and Direct Download with Usenet.nl 300GB+ free


Torrent info

Name:Black Hawk DownH33T RICO

Total Size: 1.37 GB

Magnet: Magnet Link

Seeds: 1

Leechers: 4

Stream: Watch Online @ Movie4u

Last Updated: 2009-12-08 01:41:18 (Update Now)

Torrent added: 2008-12-08 04:34:03





Torrent Files List


Black Hawk Down (2001) [ENG] [DVDrip] CD1-RICO.avi (Size: 1.37 GB) (Files: 4)

 Black Hawk Down (2001) [ENG] [DVDrip] CD1-RICO.avi

699.52 MB

 Black Hawk Down (2001) [ENG] [DVDrip] CD2-RICO.avi

701.06 MB

 MEDIA INFO.DOC

4.77 KB

 tracked_by_h33t_com.txt

0.02 KB
 

Announce URL: http://www.h33t.com:3310/announce

Torrent description

Black Hawk DownH33T RICO preview 0
General
Complete name : G:\Movies\Black Hawk Down_ -RICO\Black Hawk Down (2001) [ENG] [DVDrip] CD1-RICO.avi
Format : AVI
Format/Info : Audio Video Interleave
File size : 700 MiB
Duration : 1h 6mn
Overall bit rate : 1 460 Kbps
Writing application : VirtualDubMod 1.5.4.1 (build 2178/release)
Writing library : VirtualDubMod build 2178/release

Video
Format : MPEG-4 Visual
Format profile : Streaming [email protected]
Format settings, BVOP : Yes
Format settings, QPel : No
Format settings, GMC : No warppoints
Format settings, Matrix : Custom
Codec ID : XVID
Codec ID/Hint : XviD
Duration : 1h 6mn
Bit rate : 1 005 Kbps
Width : 528 pixels
Height : 224 pixels
Display aspect ratio : 2.35
Frame rate : 23.976 fps
Resolution : 24 bits
Colorimetry : 4:2:0
Scan type : Progressive
Bits/(Pixel*Frame) : 0.354
Stream size : 482 MiB (69%)
Writing library : XviD 1.0.2 (UTC 2004-08-29)

Audio
Format : AC-3
Format/Info : Audio Coding 3
Codec ID : 2000
Duration : 1h 6mn
Bit rate mode : Constant
Bit rate : 448 Kbps
Channel(s) : 6 channels
Channel positions : Front: L C R, Surround: L R, LFE
Sampling rate : 48.0 KHz
Stream size : 215 MiB (31%)
Alignment : Split accross interleaves
Interleave, duration : 96 ms (2.30 video frames)
Interleave, preload duration : 96 ms
Language : English / English

General
Complete name : G:\Movies\Black Hawk Down_ -RICO\Black Hawk Down (2001) [ENG] [DVDrip] CD2-RICO.avi
Format : AVI
Format/Info : Audio Video Interleave
File size : 701 MiB
Duration : 1h 17mn
Overall bit rate : 1 267 Kbps
Writing application : VirtualDubMod 1.5.4.1 (build 2178/release)
Writing library : VirtualDubMod build 2178/release

Video
Format : MPEG-4 Visual
Format profile : Streaming [email protected]
Format settings, BVOP : Yes
Format settings, QPel : No
Format settings, GMC : No warppoints
Format settings, Matrix : Custom
Codec ID : XVID
Codec ID/Hint : XviD
Duration : 1h 17mn
Bit rate : 812 Kbps
Width : 528 pixels
Height : 224 pixels
Display aspect ratio : 2.35
Frame rate : 23.976 fps
Resolution : 24 bits
Colorimetry : 4:2:0
Scan type : Progressive
Bits/(Pixel*Frame) : 0.286
Stream size : 449 MiB (64%)
Writing library : XviD 1.0.2 (UTC 2004-08-29)

Audio
Format : AC-3
Format/Info : Audio Coding 3
Codec ID : 2000
Duration : 1h 17mn
Bit rate mode : Constant
Bit rate : 448 Kbps
Channel(s) : 6 channels
Channel positions : Front: L C R, Surround: L R, LFE
Sampling rate : 48.0 KHz
Video delay : 9ms
Stream size : 248 MiB (35%)
Alignment : Split accross interleaves
Interleave, duration : 96 ms (2.30 video frames)
Interleave, preload duration : 96 ms
Language : English / English

related torrents

Torrent name

health leech seeds Size

Black Hawk Down (2001) 720p

5333 5163 678.03 MB 0
 

comments (0)

Main Menu