Action

Blade Runner RICO

  • Download 5x Faster
  • Download torrent
  • Direct Download
  • Rate this torrent +  |  -
Blade Runner RICO

Free and Direct Download with Usenet 300GB+ free


Torrent info

Name:Blade Runner RICO

Total Size: 745.23 MB

Magnet: Magnet Link

Seeds: 1

Leechers: 2

Stream: Watch Online @ Movie4u

Last Updated: 2010-09-08 21:43:41 (Update Now)

Torrent added: 2008-12-08 04:34:03




Torrent Files List


Screenshots (Size: 745.23 MB) (Files: 7)

 Screenshots

  Screenshot1.png

198.54 KB

  Screenshot2.png

221.17 KB

  Screenshot3.png

264.10 KB

 Blade Runner [Final Cut] [1982-DVDRip-H.264]--RICO.mp4

738.38 MB

 MEDIA INFO.DOC

3.25 KB

 Subtitles.7z

6.18 MB

 tracked_by_h33t_com.txt

0.02 KB
 

Announce URL: http://www.h33t.com:3310/announce

Torrent description

Blade Runner  RICO preview 0
General
Complete name : G:\Movies\Blade Runner_-RICO\Blade Runner [Final Cut] [1982-DVDRip-H.264]--RICO.mp4
Format : MPEG-4
Format profile : Base Media / Version 2
Codec ID : mp42
File size : 738 MiB
Duration : 1h 52mn
Overall bit rate : 915 Kbps
Encoded date : UTC 2007-12-05 08:19:57
Tagged date : UTC 2007-12-05 09:57:36

Video
Format : AVC
Format/Info : Advanced Video Codec
Format profile : [email protected]
Format settings, CABAC : Yes
Format settings, ReFrames : 1 frame
Codec ID : avc1
Codec ID/Info : Advanced Video Coding
Duration : 1h 52mn
Bit rate mode : Variable
Bit rate : 785 Kbps
Width : 720 pixels
Height : 304 pixels
Display aspect ratio : 2.35
Frame rate mode : Constant
Frame rate : 25.000 fps
Resolution : 24 bits
Colorimetry : 4:2:0
Scan type : Progressive
Bits/(Pixel*Frame) : 0.143
Stream size : 633 MiB (86%)
Writing library : x264 core 56 svn-665M
Encoding settings : cabac=1 / ref=1 / deblock=1:0:0 / analyse=0x1:0x111 / me=hex / subme=4 / brdo=0 / mixed_ref=0 / me_range=16 / chroma_me=1 / trellis=0 / 8x8dct=0 / cqm=0 / deadzone=21,11 / chroma_qp_offset=0 / threads=1 / nr=0 / decimate=1 / mbaff=0 / bframes=0 / keyint=500 / keyint_min=25 / scenecut=40 / rc=2pass / bitrate=785 / ratetol=1.0 / rceq='blurCplx^(1-qComp)' / qcomp=0.60 / qpmin=10 / qpmax=51 / qpstep=4 / cplxblur=20.0 / qblur=0.5 / ip_ratio=1.40
Encoded date : UTC 2007-12-05 08:19:57
Tagged date : UTC 2007-12-05 09:57:36

Audio
Format : AAC
Format/Info : Advanced Audio Codec
Format version : Version 4
Format profile : LC
Format settings, SBR : No
Codec ID : 40
Duration : 1h 52mn
Bit rate mode : Variable
Bit rate : 128 Kbps
Maximum bit rate : 236 Kbps
Channel(s) : 2 channels
Channel positions : L R
Sampling rate : 44.1 KHz
Resolution : 16 bits
Stream size : 103 MiB (14%)
Language : English
Encoded date : UTC 2007-12-05 08:19:57
Tagged date : UTC 2007-12-05 09:57:36

related torrents

Torrent name

health leech seeds Size
 

comments (0)

Main Menu